Welcome Guest ( Log In | Register )

> Releases Upload / Добавление релизов

Добавить релиз тут/Click here to add release
Рекомендованный хостинг/Recommended file share: files.metalarea.org

 
ОтветитьСоздать новую тему
> Asterius - Выхода Нет (2016), Heavy Metal
post Mar 19 2017, 16:56:01
Post #1

Thrash, Beer & Violence
**************
Group: Металариец
Posts: 5,186
Releases: 2555
From: Крестов Брод (Russland)
On Forums: 9 years 5 months
Thanks: 36817 time(s)
Russian Federation


(IMG:http://metalarea.org/images/audiocovers/2017_Mar/acov_tid285628_thumb.jpg)

*Artist: Asterius
*Album: Выхода Нет
*Year: 2016
*Genre: Heavy Metal
*Country: Russian Federation (IMG:http://metalarea.org/forum/style_images/flags/Russian%20Federation.png)
*Format: mp3@CBR320kbps
*Size: 122MB

Tracklist:
01. Интро 01:41
02. Остановись 04:13
03. Эта Игра 04:18
04. Обреченный на Искушение 04:58
05. Знак Вопроса 02:57
06. Ангел и Бес 03:55
07. Выхода Нет 04:25
08. Вампир 04:12
09. Волк 04:46
10. Полночный Демон 04:20
11. Чужая Война 04:02
12. Огонь во Власти 04:50
13. За Горизонтом 04:34
******************************
Total playing time: 53:11

ВКонтакТ

Extended info


Technical info
(IMG:http://metalarea.org/images/spectrogram/2017_Mar/07393255c06180e1f050cdb720646d61.png)
Input File: 02-Остановись.mp3
Channels : 2
Sample Rate : 44100
Precision : 16-bit
Duration : 00:04:13.10 = 11161754 samples = 18982.6 CDDA sectors
File Size : 10.1M
Bit Rate : 320k
Sample Encoding: MPEG audio (layer I, II or III)
Comments :
Title=Остановись!!!
Artist=ASTERIUS
Album=Выхода нет
Tracknumber=02
Year=2016
Genre=9



Register


Thanks:
Вернуться к началу страницы
  Insert nick Quick quote
+Цитировать сообщение

ОтветитьСоздать новую тему
1 User(s) are reading this topic (1 Guests and 0 Anonymous Users)
0 Members:

 



- Lo-Fi Version Support form
Copyrights and abuse reports form
Time is now: 23rd March 2017 - 17:12:59