Welcome Guest ( Log In | Register )

> Aldaria - Land Of Light (2017), Melodic Power Metal/Metal Opera
post Mar 23 2017, 12:19:05
Post #1

Serial Uploader
Group Icon
Group: V.I.P
Posts: 35,477
Releases: 33689
From: Lithuania
On Forums: 11 years 2 weeks
Thanks: 386901 time(s)
Lithuania


(IMG:http://metalarea.org/images/audiocovers/2017_Mar/acov_tid285814_thumb.jpg)

*Artist: Aldaria
*Album: Land Of Light
*Year: 2017
*Genre: Melodic Power Metal/Metal Opera
*Country: Norway (IMG:http://metalarea.org/forum/style_images/flags/Norway.png)
*Format: mp3@CBR320kbps
*Size: 139MB

Tracklist:
01. Excitare Ad Lucem
02. Another Life
03. Guardians of the Light
04. Sands of Time
05. Lost in the Darkness Below
06. Test of Time
07. Trail of Tears
08. Where Reality Ends
09. From the Ashes
10. Answers in a Dream
11. Land of Light
******************************
Total playing time: 59:34



Technical info
(IMG:http://metalarea.org/images/spectrogram/2017_Mar/0af0a511c25f6fa46d0d9edbebd4778b.png)
Input File: 02. Another Life.mp3
Channels : 2
Sample Rate : 44100
Precision : 16-bit
Duration : 00:06:14.19 = 16501603 samples = 28064 CDDA sectors
File Size : 15.3M
Bit Rate : 326k
Sample Encoding: MPEG audio (layer I, II or III)
Comments :
Title=Another Life
Artist=Aldaria
Album=Land of Light
Tracknumber=2
Year=2017
Discnumber=1/1



Register


Go to the top of the page
  Insert nick Quick quote
+Quote Post
 
Start new topic
Replies (1 - 5)
post Mar 23 2017, 18:04:15
Post #2

Маньяк
**********
Group: Металариец
Posts: 1,215
Releases: 0
From: Russian Federation - St.Petersburg
On Forums: 10 years 3 months
Thanks: 278 time(s)
Russian Federation


По превью всё лёгенько но не плохо. (IMG:style_emoticons/default/hmm.gif) Полез тянуть...
https://www.youtube.com/watch?v=sU40QSYmoxo


Thanks:
(1) Druidir,
Go to the top of the page
  Insert nick Quick quote
+Quote Post
post Mar 24 2017, 07:59:03
Post #3

Мегаманьяк
***********
Group: Металариец
Posts: 1,780
Releases: 0
On Forums: 6 years 7 months
Thanks: 2554 time(s)
Russian Federation


Альтернативная ссылка
Register


Thanks:
Go to the top of the page
  Insert nick Quick quote
+Quote Post
post Mar 24 2017, 17:07:35
Post #4

Шесть Литров
******
Group: Металариец
Posts: 658
Releases: 0
From: Sweden
On Forums: 10 years 3 months
Thanks: 17 time(s)
Sweden


Thank you.
Go to the top of the page
  Insert nick Quick quote
+Quote Post
post Apr 10 2017, 17:15:29
Post #5

Перевозчик
**************
Group: Металариец
Posts: 2,972
Releases: 0
On Forums: 10 years 11 months
Thanks: 627 time(s)
Russian Federation


Легковесный пластмассовый звук. Митвульф был бы в восторге. (IMG:style_emoticons/default/1488.gif)


Thanks:
(1) Foneg,
Go to the top of the page
  Insert nick Quick quote
+Quote Post
post Jun 12 2019, 08:14:46
Post #6

Добрый
**************
Group: Металариец
Posts: 2,253
Releases: 0
On Forums: 11 months 3 weeks
Thanks: 1787 time(s)
Russian Federation


139 mb/320 kbps
Register
Go to the top of the page
  Insert nick Quick quote
+Quote Post

Reply to this topicStart new topic
2 User(s) are reading this topic (2 Guests and 0 Anonymous Users)
0 Members:

 



- Lo-Fi Version Support form
Copyrights and abuse reports form
Time is now: 27th June 2019 - 06:59:44