Welcome Guest ( Log In | Register )

> 

Здесь релизы с живыми прямыми ссылками на lossless

> Helioss - Antumbra (2017), Symphonic Black/Death Metal (D4)
post Mar 23 2017, 14:39:23
Post #1

Serial Uploader
Group Icon
Group: V.I.P
Posts: 37,287
Releases: 35468
From: Lithuania
On Forums: 12 years 2 months
Thanks: 422691 time(s)
Lithuania


(IMG:http://metalarea.org/images/audiocovers/2017_Mar/acov_tid285828_thumb.jpg)

*Artist: Helioss
*Album: Antumbra
*Year: 2017
*Genre: Symphonic Black/Death Metal
*Country: France (IMG:http://metalarea.org/forum/style_images/flags/France.png)
*Format: mp3@CBR320kbps
*Size: 145MB

Tracklist:
01. The World Is Ours
02. Santhara
03. Dernière Nuit
04. Forsaken
05. The Ninth Hour
06. Bring Forth The Rain
07. Drowning In Your Light
08. Screaming In Silence
09. Above
10. The Sun Is Gone
11. Coupables
12. ...For Victory (Bonus Track)
******************************
Total playing time: 3:10

(IMG:http://metalarea.org/images/myspace.png)


Technical info
(IMG:http://metalarea.org/images/spectrogram/2017_Mar/27825d2b1597d0bb760b6be8b059cfc7.png)
Input File: 02. Santhara.mp3
Channels : 2
Sample Rate : 44100
Precision : 16-bit
Duration : 00:04:47.35 = 12672135 samples = 21551.3 CDDA sectors
File Size : 11.6M
Bit Rate : 323k
Sample Encoding: MPEG audio (layer I, II or III)
Comments :
Title=Santhara
Artist=Helioss
Album=Antumbra
Tracknumber=2
Year=2017
Genre=GetMetal.CLUB
Discnumber=1/1



Register


Go to the top of the page
  Insert nick Quick quote
+Quote Post
 
Start new topic
Replies (1 - 5)
post Mar 25 2017, 04:19:44
Post #2

Правь статус, ####!111
**************
Group: Металариец
Posts: 2,459
Releases: 11
From: Canada
On Forums: 13 years 1 month
Thanks: 1649 time(s)
Canada




Go to the top of the page
  Insert nick Quick quote
+Quote Post
post Mar 28 2017, 00:25:21
Post #3

Это просто место… где все подошло к концу.
**************
Group: Металариец
Posts: 5,902
Releases: 0
From: Страны Мамонтов
On Forums: 13 years 5 months
Thanks: 2231 time(s)
Antarctica


Весьма недурно. Мелодично, симфонично и без соплей (+ в наличии приятный гроул)
Go to the top of the page
  Insert nick Quick quote
+Quote Post
post May 23 2020, 17:21:29
Post #4

Маньяк
**********
Group: Металариец
Posts: 1,374
Releases: 234
On Forums: 11 years 8 months
Thanks: 4800 time(s)
Russian Federation


Найдено
FLAC tracks (11 tracks only without bonus)
Register
Go to the top of the page
  Insert nick Quick quote
+Quote Post
post Jul 19 2020, 11:04:27
Post #5

Маньяк
**********
Group: Металариец
Posts: 1,374
Releases: 234
On Forums: 11 years 8 months
Thanks: 4800 time(s)
Russian Federation


Anybody have
ЦИТАТА(necroscum @ 23rd March 2017 - 16:39:23) *
12. ...For Victory (Bonus Track)
in FLAC?
Upload, please ! (IMG:style_emoticons/default/pray.gif)
Go to the top of the page
  Insert nick Quick quote
+Quote Post
post Aug 1 2020, 12:17:35
Post #6

Правь статус, ####!111
**************
Group: Металариец
Posts: 3,605
Releases: 36
On Forums: 2 years 9 months
Thanks: 8582 time(s)
Unknown


Register


Thanks:
Go to the top of the page
  Insert nick Quick quote
+Quote Post

Reply to this topicStart new topic
2 User(s) are reading this topic (2 Guests and 0 Anonymous Users)
0 Members:

 



- Lo-Fi Version Support form
Copyrights and abuse reports form
Time is now: 10th August 2020 - 03:05:12