Welcome Guest ( Log In | Register )

> 

Здесь релизы с живыми прямыми ссылками на lossless

> Bestial Warlust - Storming Bestial Legions - Live '96 [live] (2017), Black/Death Metal
post Mar 31 2017, 03:15:11
Post #1

Satan Soldier
**************
Group: Металариец
Posts: 2,240
Releases: 603
From: IN HELL
On Forums: 7 years 2 months
Thanks: 14187 time(s)
France


(IMG:http://metalarea.org/images/audiocovers/2017_Mar/acov_tid286307_thumb.jpg)

*Artist: Bestial Warlust
*Album: Storming Bestial Legions - Live '96 [live]
*Year: 2017
*Genre: Black/Death Metal
*Country: Australia (IMG:http://metalarea.org/forum/style_images/flags/Australia.png)
*Format: mp3@CBR320kbps
*Size: 85MB

Tracklist:
1.Death Rides Out 03:03
2.I, The Warrior 03:21
3.Storming Vengeance 03:32
4.Barbaric Horde 05:02
5.Prelude - Descention Hell's Blood 04:11
6.Heathens 04:14
7.Orgy of Souls 04:15
8.Beerz and Blood 03:01
9.Blood and Valour 02:58
10.Massacre (Bathory cover) 02:40
******************************
Total playing time: 36:17




Technical info
(IMG:http://metalarea.org/images/spectrogram/2017_Mar/8de3a67cd0e1120437298082c10caad6.png)
Input File: 01 - Bestial Warlust - Death Rides Out (Live).mp3
Channels : 2
Sample Rate : 44100
Precision : 16-bit
Duration : 00:03:04.29 = 8127013 samples = 13821.5 CDDA sectors
File Size : 7.54M
Bit Rate : 327k
Sample Encoding: MPEG audio (layer I, II or III)
Comments :
Title=Death Rides Out (Live)
Artist=Bestial Warlust
Album=Storming Bestial Legions Live '96
Tracknumber=1/10
Year=2017
Genre=Black / Death Metal



Register


Go to the top of the page
  Insert nick Quick quote
+Quote Post
 
Start new topic
Replies (1 - 1)
post Feb 4 2020, 14:20:59
Post #2

Два Литра
**
Group: Завсегдатай
Posts: 181
Releases: 0
On Forums: 2 months 2 days
Thanks: 219 time(s)
Unknown


Flac
Register


Thanks:
Go to the top of the page
  Insert nick Quick quote
+Quote Post

Reply to this topicStart new topic
1 User(s) are reading this topic (1 Guests and 0 Anonymous Users)
0 Members:

 



- Lo-Fi Version Support form
Copyrights and abuse reports form
Time is now: 29th March 2020 - 00:23:48