Welcome Guest ( Log In | Register )

> Pokerface - Game On (2017), Thrash Metal
post Mar 31 2017, 10:43:47
Post #1

Аннигилятор пивА
Group Icon
Group: V.I.P
Posts: 49,579
Releases: 15329
From: Koenigsberg - TILZIT
On Forums: 12 years 4 months
Thanks: 334200 time(s)
Russian Federation


(IMG:https://metalarea.org/images/audiocovers/2017_Mar/acov_tid286322_thumb.jpg)

*Artist: Pokerface
*Album: Game On
*Year: 2017
*Genre: Thrash Metal
*Country: Russian Federation (IMG:https://metalarea.org/forum/style_images/flags/Russian%20Federation.png)
*Format: mp3@CBR320kbps
*Size: 85MB

Tracklist:
01. The Bone Reaper
02. The Fatal Scythe
03. Play or Die
04. Blackjack
05. Straight Flush
06. Cry. Pray. Die.
07. Creepy Guests
08. Bow! Run! Scream!
09. Jackpot
10. Game On
******************************
Total playing time: 40:02



Extended info
LadyOwl - Vocals,
Whitevad - Lead guitars,
Xen Ritter - Lead guitars,
DedMoroz - Bass guitar,
Doctor - Drums, percussion.


Technical info
(IMG:https://metalarea.org/images/spectrogram/2017_Mar/4467c001e90cb8ed1a2e5325c81c2405.png)
Input File: 02. The Fatal Scythe.mp3
Channels : 2
Sample Rate : 44100
Precision : 16-bit
Duration : 00:03:45.02 = 9923206 samples = 16876.2 CDDA sectors
File Size : 9.08M
Bit Rate : 323k
Sample Encoding: MPEG audio (layer I, II or III)
Comments :
Title=The Fatal Scythe
Artist=Pokerface
Album=Game On
Tracknumber=2
Discnumber=1



Register


Go to the top of the page
  Insert nick Quick quote
+Quote Post
 
Start new topic
Replies (1 - 8)
post Mar 31 2017, 12:41:26
Post #2

Аннигилятор пивА
Group Icon
Group: V.I.P
Posts: 49,579
Releases: 15329
From: Koenigsberg - TILZIT
On Forums: 12 years 4 months
Thanks: 334200 time(s)
Russian Federation


зеркало
Register


Go to the top of the page
  Insert nick Quick quote
+Quote Post
post Mar 31 2017, 12:57:01
Post #3

\m/
Group Icon
Group: S-moderation team
Posts: 7,516
Releases: 19
From: Петропавловск-Камчатский
On Forums: 9 years 4 months
Thanks: 6832 time(s)
Russian Federation


Превью заинтриговало, надо послушать целиком...
Go to the top of the page
  Insert nick Quick quote
+Quote Post
post Mar 31 2017, 13:09:28
Post #4

Аннигилятор пивА
Group Icon
Group: V.I.P
Posts: 49,579
Releases: 15329
From: Koenigsberg - TILZIT
On Forums: 12 years 4 months
Thanks: 334200 time(s)
Russian Federation


ЦИТАТА(DarkHorde @ Mar 31 2017, 11:57:01) *
Превью заинтриговало, надо послушать целиком...

мне кажется вокал ближе к дэту, да и звук придэтованный, хотя риффаж пилят трэшевый (IMG:style_emoticons/default/crazy.gif)
Go to the top of the page
  Insert nick Quick quote
+Quote Post
post Mar 31 2017, 14:30:52
Post #5

Аполітичний
**************
Group: Металариец
Posts: 5,210
Releases: 143
From: Тимчасово окупована територія - Юзівка
On Forums: 10 years 2 months
Thanks: 5430 time(s)
Ukraine


ЦИТАТА(DarkHorde @ Mar 31 2017, 14:57:01) *
надо послушать целиком...


Непременно! (IMG:style_emoticons/default/banana.gif)
Go to the top of the page
  Insert nick Quick quote
+Quote Post
post Mar 31 2017, 14:47:28
Post #6

Schuldinerist
**************
Group: Металариец
Posts: 9,853
Releases: 33
From:
On Forums: 11 years 6 months
Thanks: 6021 time(s)
Russian Federation


ааа, это те ребятки, которые в Москве на разогреве у всех крутых трэшеров засветились???
в концертном варианте они мне не очень пошли, хотя пару интересных песен у них было, одна с маршевым ритмом типа (Am I Evil), если ничего не путаю
Go to the top of the page
  Insert nick Quick quote
+Quote Post
post Apr 5 2017, 17:47:04
Post #7

Литр
*
Group: Подсевший
Posts: 99
Releases: 0
On Forums: 9 years 7 months
Thanks: 60 time(s)
Russian Federation


Русская версия Holy Moses. Песня Creepy Guests вставляет по самое! добротная банда с отличным потенциалом.
Go to the top of the page
  Insert nick Quick quote
+Quote Post
post Jan 8 2018, 16:00:26
Post #8

Group: Дух
Posts: 4
Releases: 0
From: spain
On Forums: 11 years 5 months
Thanks: 3 time(s)
Spain


Thanks, very good....
Go to the top of the page
  Insert nick Quick quote
+Quote Post
post Oct 11 2018, 12:59:17
Post #9

Два Литра
**
Group: Завсегдатай
Posts: 132
Releases: 6
On Forums: 6 years 6 months
Thanks: 144 time(s)
Russian Federation


Обложка-гибрид Эксодусовских 2007 (IMG:https://addictedtomoshblog.files.wordpress.com/2012/09/exodus-atrocitya.jpeg) и 2010 (IMG:https://images-na.ssl-images-amazon.com/images/I/91A2QiJsnaL._SL1500_.jpg)
, ну и героиня в эстетике явно более коммерческих и лёгких подстилей метала. Это уже на вид.
Go to the top of the page
  Insert nick Quick quote
+Quote Post

Reply to this topicStart new topic
1 User(s) are reading this topic (1 Guests and 0 Anonymous Users)
0 Members:

 



- Lo-Fi Version Support form
Copyrights and abuse reports form
Time is now: 23rd October 2018 - 17:40:07