Welcome Guest ( Log In | Register )

> Hant - Arisen (2017), Atmospheric Black Metal
post Apr 5 2017, 20:53:16
Post #1

Ich bin die Trauer menschlich, kommen Sie zu mir und ich werde Ihnen vergelten
**************
Group: Металариец
Posts: 3,377
Releases: 692
From: Koenigsberg
On Forums: 10 years 5 months
Thanks: 9196 time(s)
Russian Federation


(IMG:http://metalarea.org/images/audiocovers/2017_Apr/acov_tid286718_thumb.jpg)

*Artist: Hant
*Album: Arisen
*Year: 2017
*Genre: Atmospheric Black Metal
*Country: Hungary (IMG:http://metalarea.org/forum/style_images/flags/Hungary.png)
*Format: mp3@CBR320kbps
*Size: 120MB

Tracklist:
01. Desolate
02. Evolution of Minds
03. Of Longing and Lust
04. Black Lake
05. Arisen
06. Beyond the Astral Doors
07. Summoning
08. Mad World
******************************
Total playing time: 51:11

Technical info
(IMG:http://metalarea.org/images/spectrogram/2017_Apr/90901c89e77647c2792760f1d3a1a706.png)
Input File: 02. Evolution Of Minds.mp3
Channels : 2
Sample Rate : 44100
Precision : 16-bit
Duration : 00:08:01.04 = 21213864 samples = 36078 CDDA sectors
File Size : 19.3M
Bit Rate : 321k
Sample Encoding: MPEG audio (layer I, II or III)
Comments :
Title=Evolution Of Minds
Artist=Hant
Album=Arisen
Tracknumber=2
Year=2017
Genre=Black Metal



Register


Go to the top of the page
  Insert nick Quick quote
+Quote Post
 
Start new topic
Replies (1 - 4)
post Apr 6 2017, 09:04:40
Post #2

Четыре Литра
****
Group: Металариец
Posts: 368
Releases: 0
From: Мурманск
On Forums: 8 years 2 months
Thanks: 465 time(s)
Russian Federation




Go to the top of the page
  Insert nick Quick quote
+Quote Post
post Apr 6 2017, 13:06:00
Post #3

Психиатр мой лучший друг
******
Group: Металариец
Posts: 526
Releases: 172
From: Уральских Гор
On Forums: 9 years 3 months
Thanks: 3991 time(s)
Russian Federation


ЦИТАТА(popen13 @ Apr 6 2017, 13:04:40) *


Спасибо щас бы скачал


Thanks:
Go to the top of the page
  Insert nick Quick quote
+Quote Post
post Apr 12 2017, 04:38:21
Post #4

Правь статус, ####!111
**************
Group: Металариец
Posts: 2,712
Releases: 18
From: Eternal darkness
On Forums: 10 years 8 months
Thanks: 6324 time(s)
Russian Federation


Register


Thanks:
(1) NachtWulf,
Go to the top of the page
  Insert nick Quick quote
+Quote Post
post Oct 12 2017, 17:47:56
Post #5

Black is beautiful
***********
Group: Металариец
Posts: 1,575
Releases: 3
On Forums: 6 years 3 months
Thanks: 274 time(s)
Unknown


Instumental!

Boring.
Go to the top of the page
  Insert nick Quick quote
+Quote Post

Reply to this topicStart new topic
1 User(s) are reading this topic (1 Guests and 0 Anonymous Users)
0 Members:

 



- Lo-Fi Version Support form
Copyrights and abuse reports form
Time is now: 22nd June 2018 - 15:54:55