Welcome Guest ( Log In | Register )

> Demon Head - Thunder On The Fields (2017), Traditional Doom Metal/Hard Rock
post Apr 6 2017, 17:07:17
Post #1

Аннигилятор пивА
Group Icon
Group: V.I.P
Posts: 52,360
Releases: 16551
From: Koenigsberg - TILZIT
On Forums: 13 years 8 months
Thanks: 364211 time(s)
Russian Federation


(IMG:https://metalarea.org/images/audiocovers/2017_Apr/acov_tid286765_thumb.jpg)

*Artist: Demon Head
*Album: Thunder On The Fields
*Year: 2017
*Genre: Traditional Doom Metal/Hard Rock
*Country: Denmark (IMG:https://metalarea.org/forum/style_images/flags/Denmark.png)
*Format: mp3@CBR320kbps
*Size: 94MB

Tracklist:
01. Menneskeæderen
02. We Are Burning
03. Thunder on the Fields
04. Older Now
05. Hic Svnt Dracones
06. Gallow's Omen
07. Untune the Sky
******************************
Total playing time: 40:23




Extended info
When traditional/proto-doom is done right, there are few things finer, and few if any bands are doing it better than Demon Head.
J.W. - Drums
M.S.F. - Bass
B.G.N. - Guitar
T.G.N. - Guitar
M.F.L. - Vocals

Register



Technical info
(IMG:https://metalarea.org/images/spectrogram/2017_Apr/2deb4e6ef7790705473a4d73851c4bc3.png)
Input File: 4 Older Now.mp3
Channels : 2
Sample Rate : 44100
Precision : 16-bit
Duration : 00:04:17.59 = 11359763 samples = 19319.3 CDDA sectors
File Size : 10.5M
Bit Rate : 325k
Sample Encoding: MPEG audio (layer I, II or III)
Comments :
Title=Older Now
Artist=Demon Head
Album=Thunder On the Fields
Tracknumber=4
Year=2017
Discnumber=1/1



Register


Go to the top of the page
  Insert nick Quick quote
+Quote Post
 
Start new topic
Replies (1 - 4)
post Apr 6 2017, 17:30:39
Post #2

Пять Литров
*****
Group: Металариец
Posts: 477
Releases: 1
On Forums: 6 years 6 months
Thanks: 795 time(s)
Unknown


They are from Denmark


Thanks:
(1) DarkHorde,
Go to the top of the page
  Insert nick Quick quote
+Quote Post
post Apr 6 2017, 19:14:45
Post #3

Правь статус, ####!111
**************
Group: Металариец
Posts: 3,048
Releases: 0
From: Москва
On Forums: 12 years 2 weeks
Thanks: 452 time(s)
Russian Federation




Demon Head
Copenhagen, Denmark


Thanks:
(1) DarkHorde,
Go to the top of the page
  Insert nick Quick quote
+Quote Post
post Apr 7 2017, 12:31:26
Post #4

Detective Godzilla
Group Icon
Group: Moderation team
Posts: 3,386
Releases: 295
On Forums: 9 years 2 weeks
Thanks: 10803 time(s)
Russian Federation


Ещё одна достойная работа. Devil, Demon Head и The Doomsday Kingdom на этой неделе прям очень порадовали.
Go to the top of the page
  Insert nick Quick quote
+Quote Post
post Apr 11 2017, 19:28:56
Post #5

Это просто место… где все подошло к концу.
**************
Group: Металариец
Posts: 5,725
Releases: 0
From: Страны Мамонтов
On Forums: 13 years 5 days
Thanks: 2094 time(s)
Antarctica


Ну прям Danzig-воршип (IMG:style_emoticons/default/metaler.gif)
Go to the top of the page
  Insert nick Quick quote
+Quote Post

Reply to this topicStart new topic
2 User(s) are reading this topic (2 Guests and 0 Anonymous Users)
0 Members:

 



- Lo-Fi Version Support form
Copyrights and abuse reports form
Time is now: 24th February 2020 - 12:59:21