Welcome Guest ( Log In | Register )

> In Absenthia - Thou Shalt Not Forgive Fate (2017), Gothic/Doom Metal
post Apr 9 2017, 07:09:50
Post #1

Ich bin die Trauer menschlich, kommen Sie zu mir und ich werde Ihnen vergelten
**************
Group: Металариец
Posts: 4,073
Releases: 691
From: Koenigsberg
On Forums: 12 years 1 month
Thanks: 10790 time(s)
Russian Federation


(IMG:https://metalarea.org/images/audiocovers/2017_Apr/acov_tid286918_thumb.jpg)

*Artist: In Absenthia
*Album: Thou Shalt Not Forgive Fate
*Year: 2017
*Genre: Gothic/Doom Metal
*Country: Brazil (IMG:https://metalarea.org/forum/style_images/flags/Brazil.png)
*Format: mp3@CBR320kbps
*Size: 106MB

Tracklist:
1. Gentle Streams
2. Brienne
3. Feigned Living
4. Abiding Strain
5. Lowness
6. A Heart for Nothingness
7. Adrift
8. To Covet the Requiem
******************************
Total playing time: 44:33

Technical info
(IMG:https://metalarea.org/images/spectrogram/2017_Apr/9c3598d9d9637c898286602c52908ea5.png)
Input File: 03 - Feigned Living.mp3
Channels : 2
Sample Rate : 44100
Precision : 16-bit
Duration : 00:03:56.02 = 10408438 samples = 17701.4 CDDA sectors
File Size : 9.49M
Bit Rate : 322k
Sample Encoding: MPEG audio (layer I, II or III)
Comments :
Title=Feigned Living
Artist=In Absenthia
Album=Thou Shalt Not Forgive Fate
Tracknumber=3



Register


Go to the top of the page
  Insert nick Quick quote
+Quote Post
 
Start new topic
Replies (1 - 6)
post Apr 9 2017, 10:42:19
Post #2

Пять Литров
*****
Group: Металариец
Posts: 411
Releases: 0
From: Мурманск
On Forums: 9 years 10 months
Thanks: 516 time(s)
Russian Federation




Thanks:
(1) Indamage,
Go to the top of the page
  Insert nick Quick quote
+Quote Post
post Apr 9 2017, 12:49:35
Post #3

MDM-Thrash Metal
**************
Group: Металариец
Posts: 9,258
Releases: 778
From: Одесса
On Forums: 12 years 6 months
Thanks: 20948 time(s)
Ukraine


Register


Thanks:
Go to the top of the page
  Insert nick Quick quote
+Quote Post
post Apr 9 2017, 18:40:40
Post #4

Три Литра
***
Group: Завсегдатай
Posts: 247
Releases: 1
On Forums: 10 years 1 week
Thanks: 66 time(s)
Ukraine


Draconian бразильский, очень похожи...Но нормально заходит... (IMG:style_emoticons/default/20.gif)


Thanks:
(1) Kwaad,
Go to the top of the page
  Insert nick Quick quote
+Quote Post
post Apr 9 2017, 21:41:45
Post #5

Шесть Литров
******
Group: Металариец
Posts: 551
Releases: 0
On Forums: 10 years 9 months
Thanks: 190 time(s)
Belarus


Ничего общего с великими Draconian.Серьёзный,глубокий и довольно мрачный материал.
Go to the top of the page
  Insert nick Quick quote
+Quote Post
post Apr 17 2017, 16:34:04
Post #6

赑屃
***
Group: Завсегдатай
Posts: 245
Releases: 5
From: Луганск
On Forums: 2 years 10 months
Thanks: 123 time(s)
Russian Federation


Хороший альбом гото-думистых бразильцев.. И рычат знатно и тётенька не отвратная.. Пианинки, гитарки плачут, все дела.. Даже приятно так думцой попахивает иногда..
Go to the top of the page
  Insert nick Quick quote
+Quote Post
post Apr 19 2017, 20:27:51
Post #7

Group: Подсевший
Posts: 41
Releases: 0
From: Dnepropetrovsk
On Forums: 7 years 5 months
Thanks: 9 time(s)
Unknown


ЦИТАТА(bc_ @ Apr 17 2017, 16:34:04) *
Хороший альбом гото-думистых бразильцев.. И рычат знатно и тётенька не отвратная.. Пианинки, гитарки плачут, все дела.. Даже приятно так думцой попахивает иногда..

стукачка, иди домой .
Go to the top of the page
  Insert nick Quick quote
+Quote Post

Reply to this topicStart new topic
2 User(s) are reading this topic (2 Guests and 0 Anonymous Users)
0 Members:

 



- Lo-Fi Version Support form
Copyrights and abuse reports form
Time is now: 21st February 2020 - 04:53:54