Welcome Guest ( Log In | Register )

> Сергей Маврин - Белое солнце (2017), Progressive Heavy Metal/Instrumental
post Apr 15 2017, 05:35:06
Post #1

MDM-Thrash Metal
**************
Group: Металариец
Posts: 9,684
Releases: 940
From: Одесса
On Forums: 12 years 11 months
Thanks: 24182 time(s)
Ukraine


(IMG:http://metalarea.org/images/audiocovers/2017_Apr/acov_tid287246_thumb.jpg)

*Artist: Сергей Маврин
*Album: Белое солнце
*Year: 2017
*Genre: Progressive Heavy Metal/Instrumental
*Country: Russian Federation (IMG:http://metalarea.org/forum/style_images/flags/Russian%20Federation.png)
*Format: mp3@CBR320kbps
*Size: 120MB

Tracklist:
01. Аврора
02. Белый ветер
03. Искушения
04. Тихий океан
05. М4
06. Танец дождя
07. Куда уходят сны
08. Джими
09. Вечное возвращение
10. Белое солнце
11. Любовь и боль
******************************
Total playing time: 50:03

(IMG:http://metalarea.org/images/youtube.png)
Preview 2

Extended info
Инструментальный альбом


Technical info
(IMG:http://metalarea.org/images/spectrogram/2017_Apr/6569b6e88176e25009fd784929f8b62e.png)
Input File: 02. Белый ветер.mp3
Channels : 2
Sample Rate : 44100
Precision : 16-bit
Duration : 00:04:30.94 = 11948630 samples = 20320.8 CDDA sectors
File Size : 10.9M
Bit Rate : 322k
Sample Encoding: MPEG audio (layer I, II or III)
Comments :
Title=Белый ветер
Artist=Сергей Маврин
Album=Белое солнце
Tracknumber=02
Year=2017
Genre=137



Register


Go to the top of the page
  Insert nick Quick quote
+Quote Post
3 Pages V  < 1 2 3  
Start new topic
Replies (60 - 65)
post Dec 29 2017, 11:54:03
Post #61

Котеги! Нравяцо котеги?
**************
Group: Металариец
Posts: 6,488
Releases: 0
From: Терра Инкогнита
On Forums: 10 years 2 months
Thanks: 2911 time(s)
Russian Federation


Хоухоубл, зашёл сказать "как же он задолбал своими инструменталами, доуай нармальный альбом", а его ска уже слушал даже (IMG:style_emoticons/default/crazy.gif)
Go to the top of the page
  Insert nick Quick quote
+Quote Post
post Dec 29 2017, 11:58:40
Post #62

Правь статус, ####!111
**************
Group: Металариец
Posts: 46,988
Releases: 733
On Forums: 11 years 2 months
Thanks: 39628 time(s)
Russian Federation


ЦИТАТА(Aresson @ Dec 29 2017, 14:54:03) *
Хоухоубл, зашёл сказать "как же он задолбал своими инструменталами, доуай нармальный альбом", а его ска уже слушал даже (IMG:style_emoticons/default/crazy.gif)


А ты вот Метель послушай по ссылке Ассоника, на тебя благодать сниспадет (IMG:style_emoticons/default/bye.gif)

ЦИТАТА(Aresson @ Dec 29 2017, 14:54:03) *
казать "как же он задолбал своими инструменталами,


Как будто норм инструментал это плохо (IMG:style_emoticons/default/23.gif)
Go to the top of the page
  Insert nick Quick quote
+Quote Post
post Dec 29 2017, 12:41:36
Post #63

Котеги! Нравяцо котеги?
**************
Group: Металариец
Posts: 6,488
Releases: 0
From: Терра Инкогнита
On Forums: 10 years 2 months
Thanks: 2911 time(s)
Russian Federation


Я по его ссылкам принципиально не хожу.

Инструментал - плохо ли, хорошо ли - я хз. Их просто скучно слушать. Один, ну два подрят, блять но целый альбом этого дерьма?
Go to the top of the page
  Insert nick Quick quote
+Quote Post
post Dec 29 2017, 12:47:08
Post #64

Правь статус, ####!111
**************
Group: Металариец
Posts: 46,988
Releases: 733
On Forums: 11 years 2 months
Thanks: 39628 time(s)
Russian Federation


ЦИТАТА(Aresson @ Dec 29 2017, 15:41:36) *
но целый альбом этого дерьма?


(IMG:https://c.radikal.ru/c23/1712/81/4661c862bc36.jpg)
Go to the top of the page
  Insert nick Quick quote
+Quote Post
post Aug 1 2020, 14:10:12
Post #65

ПОЛИТИК
**************
Group: Металариец
Posts: 5,661
Releases: 4
From: P T
On Forums: 13 years 8 months
Thanks: 375 time(s)
Canada


Альбом очень необычный, с элементами прогрессива и других вкраплений.
Совеутую, удивил.


ЦИТАТА(MaXL @ Apr 18 2017, 03:43:45) *
Давно хотел послушать Маврина. Больше не буду.



(IMG:style_emoticons/default/crazy.gif)
Go to the top of the page
  Insert nick Quick quote
+Quote Post
post Aug 1 2020, 14:28:49
Post #66

Ледоруб
**************
Group: Металариец
Posts: 26,211
Releases: 0
From: Санкт-Петербург
On Forums: 10 years 10 months
Thanks: 9194 time(s)
Russian Federation


ЦИТАТА(BRUTAL06 @ 1st August 2020 - 16:10:12) *
Совеутую, удалил.

Go to the top of the page
  Insert nick Quick quote
+Quote Post

3 Pages V  < 1 2 3
Reply to this topicStart new topic
1 User(s) are reading this topic (1 Guests and 0 Anonymous Users)
0 Members:

 



- Lo-Fi Version Support form
Copyrights and abuse reports form
Time is now: 3rd August 2020 - 10:35:45