Welcome Guest ( Log In | Register )

> Lèpoka - Beerserkers (2016), Folk Metal
post Apr 15 2017, 20:32:01
Post #1

Аннигилятор пивА
Group Icon
Group: V.I.P
Posts: 52,360
Releases: 16551
From: Koenigsberg - TILZIT
On Forums: 13 years 8 months
Thanks: 364169 time(s)
Russian Federation


(IMG:http://metalarea.org/images/audiocovers/2017_Apr/acov_tid287290_thumb.jpg)

*Artist: Lèpoka
*Album: Beerserkers
*Year: 2016
*Genre: Folk Metal
*Country: Spain (IMG:http://metalarea.org/forum/style_images/flags/Spain.png)
*Format: mp3@CBR320kbps
*Size: 133MB

Tracklist:
01. Beerserkers 05:15
02. Sexcalibur 05:03
03. Skal! 04:12
04. Ignis Deorum 06:14
05. Chupito 01:31
06. Samhain 06:47
07. 1516 04:26
08. Carta a María 05:00
09. Preludio (Vox Populi) 01:29
10. Vox Populi 10:33
11. Yab Dabadaba Dai 04:34
12. Chupito (English Version) 01:30

******************************
Total playing time: 56:34




Extended info
Zaph - Bass
Jaume - Drums
Zarach - Flute
Juan Palomo - Guitars
Popez - Guitars
Samu - Vocals
Dani Nogués - Vocals




Technical info
(IMG:http://metalarea.org/images/spectrogram/2017_Apr/9adb65690da146e571af26dcdce33ea5.png)
Input File: 03 - Skål!.mp3
Channels : 2
Sample Rate : 44100
Precision : 16-bit
Duration : 00:04:12.76 = 11146628 samples = 18956.9 CDDA sectors
File Size : 10.4M
Bit Rate : 328k
Sample Encoding: MPEG audio (layer I, II or III)
Comments :
Title=SkГҐl!
Artist=Lepoka
Album=Beerserkers
Tracknumber=3/12
Year=2016



Register


Go to the top of the page
  Insert nick Quick quote
+Quote Post
 
Start new topic
Replies (1 - 3)
post Apr 15 2017, 20:42:44
Post #2

Аннигилятор пивА
Group Icon
Group: V.I.P
Posts: 52,360
Releases: 16551
From: Koenigsberg - TILZIT
On Forums: 13 years 8 months
Thanks: 364169 time(s)
Russian Federation


ЗЕРКАЛО
Register


Go to the top of the page
  Insert nick Quick quote
+Quote Post
post Apr 16 2017, 05:43:48
Post #3

i listen to black metal
**************
Group: Металариец
Posts: 2,526
Releases: 130
From: Москва-Лианозово
On Forums: 13 years 2 months
Thanks: 2112 time(s)
Russian Federation


одна из немногих испанских команд где мне их речь не мешает!!!
Go to the top of the page
  Insert nick Quick quote
+Quote Post
post Apr 28 2017, 21:57:50
Post #4

Это просто место… где все подошло к концу.
**************
Group: Металариец
Posts: 5,723
Releases: 0
From: Страны Мамонтов
On Forums: 13 years 1 day
Thanks: 2094 time(s)
Antarctica


ЦИТАТА(Victim of fate @ Apr 16 2017, 08:43:48) *
одна из немногих испанских команд где мне их речь не мешает!!!

Заинтриговал
Go to the top of the page
  Insert nick Quick quote
+Quote Post

Reply to this topicStart new topic
1 User(s) are reading this topic (1 Guests and 0 Anonymous Users)
0 Members:

 



- Lo-Fi Version Support form
Copyrights and abuse reports form
Time is now: 20th February 2020 - 22:15:14