Welcome Guest ( Log In | Register )

> Suffocation - ...Of The Dark Light (2017), Technical Brutal Death Metal
post Apr 15 2017, 23:59:15
Post #1

satanath@mail.ru
Group Icon
Group: Moderation team
Posts: 5,998
Releases: 645
From: Satan-Petersburg
On Forums: 9 years 4 weeks
Thanks: 15199 time(s)
Russian Federation


(IMG:http://metalarea.org/images/audiocovers/2017_Apr/acov_tid287294_thumb.jpg)

*Artist: Suffocation
*Album: ...Of The Dark Light
*Year: 2017
*Genre: Technical Brutal Death Metal
*Country: United States (IMG:http://metalarea.org/forum/style_images/flags/United%20States.png)
*Format: mp3@CBR320kbps
*Size: 84MB

Tracklist:
01. Clarity Through Deprivation
02. The Warmth Within The Dark
03. Your Last Breaths
04. Return To The Abyss
05. The Violation
06. Of The Dark Light
07. Some Things Should Be Left Alone
08. Caught Between Two Worlds
09. Epitaph Of The Credulous
******************************
Total playing time: 35:22



Extended info


Frank Mullen - Vocals
Terrance Hobbs - Guitars
Charles Errigo - Guitars
Derek Boyer - Bass
Eric Morotti - Drums

Label: Nuclear Blast


Technical info
(IMG:http://metalarea.org/images/spectrogram/2017_Apr/f7f4ece487bedf5934d646d3b62d5928.png)
Input File: 03 - Your Last Breaths.mp3
Channels : 2
Sample Rate : 44100
Precision : 16-bit
Duration : 00:04:36.40 = 12189416 samples = 20730.3 CDDA sectors
File Size : 11.5M
Bit Rate : 332k
Sample Encoding: MPEG audio (layer I, II or III)
Comments :
Title=Your Last Breaths
Artist=Suffocation
Album=...Of The Dark Light
Tracknumber=03/09
Year=2017
Genre=Technical Brutal Death Metal



Register


Go to the top of the page
  Insert nick Quick quote
+Quote Post
7 Pages V  « < 5 6 7  
Start new topic
Replies (180 - 181)
post Dec 2 2019, 21:55:04
Post #181

Full-of-Hate
**************
Group: Металариец
Posts: 3,304
Releases: 0
From: Moscow
On Forums: 10 years 5 months
Thanks: 2883 time(s)
Russian Federation


Едут.
В компании с Vltimas и Hate.
(IMG:https://sun9-26.userapi.com/c857624/v857624249/112cef/33nS64kpUeI.jpg)

20.02.2020 Мск.
Спб будет отдельным анонсом вроде бы...
Go to the top of the page
  Insert nick Quick quote
+Quote Post
post Dec 2 2019, 22:03:57
Post #182

Ледоруб
**************
Group: Металариец
Posts: 23,576
Releases: 0
From: Санкт-Петербург
On Forums: 10 years 3 months
Thanks: 7892 time(s)
Russian Federation


Ужасная компания, конечно.


Thanks:
(1) Фо,
Go to the top of the page
  Insert nick Quick quote
+Quote Post

7 Pages V  « < 5 6 7
Reply to this topicStart new topic
1 User(s) are reading this topic (1 Guests and 0 Anonymous Users)
0 Members:

 



- Lo-Fi Version Support form
Copyrights and abuse reports form
Time is now: 12th December 2019 - 14:22:05