Welcome Guest ( Log In | Register )

 
Reply to this topicStart new topic
> Strangulation - First Demo [demo] (2016), Brutal Death Metal (D4)
post Apr 18 2017, 16:32:41
Post #1

Мастер волшебного кнута
**************
Group: Металариец
Posts: 3,902
Releases: 3605
From: Кронштадт, Санкт-Петербург
On Forums: 13 years 1 month
Thanks: 22487 time(s)
Russian Federation


(IMG:http://metalarea.org/images/audiocovers/2017_Apr/acov_tid287420_thumb.jpg)

*Artist: Strangulation
*Album: First Demo [demo]
*Year: 2016
*Genre: Brutal Death Metal
*Country: Japan (IMG:http://metalarea.org/forum/style_images/flags/Japan.png)
*Format: mp3@CBR320kbps
*Size: 25MB

Tracklist:
01. P.P.K. (Party People Killer) 03:24
02. Incest Clan Butchery 03:28
03. Relax With Blood And Gore 03:17
******************************
Total playing time: 10:09




Technical info
(IMG:http://metalarea.org/images/spectrogram/2017_Apr/a4d7630c391a4e315a09921ff01ad408.png)
Input File: 01 P.P.K. (Party People Killer).mp3
Channels : 2
Sample Rate : 44100
Precision : 16-bit
Duration : 00:03:25.03 = 9041735 samples = 15377.1 CDDA sectors
File Size : 8.43M
Bit Rate : 329k
Sample Encoding: MPEG audio (layer I, II or III)
Comments :
Title=P.P.K. (Party People Killer)
Artist=Strangulation
Album=First Demo
Tracknumber=1
Year=2016
Genre=Brutal Death Metal



Register


Go to the top of the page
  Insert nick Quick quote
+Quote Post

Reply to this topicStart new topic
1 User(s) are reading this topic (1 Guests and 0 Anonymous Users)
0 Members:

 



- Lo-Fi Version Support form
Copyrights and abuse reports form
Time is now: 3rd December 2020 - 21:28:02