Welcome Guest ( Log In | Register )

> Правила / Rules

Тут только для чтения лежат низкобитрейтные (<192kbps) релизы, для которых есть аналоги в высокобитрейтных форумах.

Here goes (and stand in read only mode) low bitrate releases (<192kbps) which were already replaced by high bitrate releases in corresponding forums.

> Neocaesar - 11:11 (2017), Death Metal
post Apr 21 2017, 18:04:11
Post #1

Слэм-неволяшка
***********
Group: Металариец
Posts: 1,664
Releases: 144
From: Севастополь
On Forums: 13 years 5 months
Thanks: 1878 time(s)
Russian Federation


(IMG:http://metalarea.org/images/audiocovers/2017_Apr/acov_tid287627_thumb.jpg)

*Artist: Neocaesar
*Album: 11:11
*Year: 2017
*Genre: Death Metal
*Country: Netherlands (IMG:http://metalarea.org/forum/style_images/flags/Netherlands.png)
*Format: mp3@CBR320kbps
*Size: 100MB

Tracklist:
1. Initial Novum (Intro) 01:59
2. From Hell 04:25
3. Victims of Deception 05:00
4. Invocation of the Watcher 02:35
5. Sworn to Hate 05:38
6. Valhalla Rising 03:44
7. Prelude to Darkness 03:36
8. Angelic Carnage 05:45
9. Sigillorum Satanas 03:20
10. Blood of the Nephilim 07:52
******************************
Total playing time: 43:54

Extended info
Band are:

Michel Alderliefsten Bass (2013-present)
(Houwitser, ex-Khaoz, ex-Sinister)
Eric de Windt Drums (2013-present)
(Temple, Supreme Pain, ex-Deströyer 666, ex-Inhume, ex-Prostitute Disfigurement, ex-Severe Torture, ex-Sinister, ex-Warfather)
Bart van Wallenberg Guitars (2013-present)
(ex-Bleeding Gods, ex-Endor, ex-Sinister)
Mike van Mastrigt Vocals (2013-present)
(Houwitser, ex-Sorcerer, ex-Sinister, ex-Division 666)


Technical info
(IMG:http://metalarea.org/images/spectrogram/2017_Apr/70ee3c19ecbf066b16daf20fa9a80677.png)
Input File: 01-Initial Novum (Intro).mp3
Channels : 2
Sample Rate : 44100
Precision : 16-bit
Duration : 00:01:59.55 = 5272155 samples = 8966.25 CDDA sectors
File Size : 4.78M
Bit Rate : 320k
Sample Encoding: MPEG audio (layer I, II or III)
Comments :
Title= Initial Novum (Intro)
Artist=NEOCAESAR
Album=11:11
Tracknumber=1
Year=2017
Genre=Death Metal



Register


Go to the top of the page
  Insert nick Quick quote
+Quote Post
 
Start new topic
Replies (1 - 7)
post Apr 21 2017, 20:42:26
Post #2

MDM-Thrash Metal
**************
Group: Металариец
Posts: 8,675
Releases: 595
From: Одесса
On Forums: 12 years 1 month
Thanks: 17275 time(s)
Ukraine


https://www.youtube.com/watch?v=0wVPiKTWZj0

https://www.youtube.com/watch?v=Pwyac0U6KR8


Register


Go to the top of the page
  Insert nick Quick quote
+Quote Post
post Apr 21 2017, 21:55:47
Post #3

Group: Подсевший
Posts: 19
Releases: 0
From: Norway / Stavanger
On Forums: 2 years 6 months
Thanks: 1 time(s)
Norway


Отличный альбом.... (IMG:style_emoticons/default/true_black.gif)
Go to the top of the page
  Insert nick Quick quote
+Quote Post
post Apr 22 2017, 09:58:13
Post #4

Аннигилятор пивА
Group Icon
Group: V.I.P
Posts: 52,358
Releases: 16557
From: Koenigsberg - TILZIT
On Forums: 13 years 3 months
Thanks: 362234 time(s)
Russian Federation


Исходное качество со стрима без пережатия в 128kb/40mb
Register


Thanks:
Go to the top of the page
  Insert nick Quick quote
+Quote Post
post Apr 22 2017, 14:20:38
Post #5

Маньяк
**********
Group: Металариец
Posts: 1,421
Releases: 0
On Forums: 11 years 7 months
Thanks: 599 time(s)
Russian Federation


Оставшиеся не у дел экс-синистерцы сваяли то, что больше похоже на старый SINISTER, чем современный SINISTER. Нормально. Больше групп хороших и разных!
Go to the top of the page
  Insert nick Quick quote
+Quote Post
post May 3 2017, 20:09:13
Post #6

Шесть Литров
******
Group: Металариец
Posts: 611
Releases: 0
From: simferopol
On Forums: 12 years 3 months
Thanks: 217 time(s)
Ukraine


С одной стороны звучит суховато и механично, с новым синистером не сравнить)
С другой стороны определенное обаяние синистера времен агрессив межурес и хейт есть)быстрые, резко обрывающиеся риффы, замедления, благодаря которым все мы любим детх из Нидерландов (типа как в Sworn to Hate и Victims of Deception), и даже какие то атмосферные ненавязчивые фишечки.
Звук тоже неоднозначен, с одной стороны он приятно монолитен и глуховат, как уже упомянутый агрессив межурес, с другой стороны хочется как то поярче звучание, чтобы в доминирующем двухбочечном молотилове и монотонном вокале, подчеркнуть качественную гитарную работу)
Go to the top of the page
  Insert nick Quick quote
+Quote Post
post May 18 2017, 14:54:28
Post #7

кручу наждак
**************
Group: Металариец
Posts: 4,031
Releases: 97
From: Самара
On Forums: 9 years 4 months
Thanks: 3065 time(s)
Russian Federation


Фоном прошел, зацепиться было абсолютно не за что. Вроде неплохо...
Go to the top of the page
  Insert nick Quick quote
+Quote Post
post Jun 8 2017, 23:21:12
Post #8

ПОЛИТИК
**************
Group: Металариец
Posts: 5,612
Releases: 4
From: P T
On Forums: 12 years 9 months
Thanks: 363 time(s)
Canada


(IMG:style_emoticons/default/9.gif)
Go to the top of the page
  Insert nick Quick quote
+Quote Post

Причина закрытия (Borderline1991 27-10-2017): Neocaesar - 11:11 (2017)
Closed TopicStart new topic
2 User(s) are reading this topic (2 Guests and 0 Anonymous Users)
0 Members:

 



- Lo-Fi Version Support form
Copyrights and abuse reports form
Time is now: 17th September 2019 - 15:17:20