Welcome Guest ( Log In | Register )

> 

Здесь релизы с живыми прямыми ссылками на lossless

> Caoimhín - The Age Of Wolves [ep] (2017), Atmospheric Post-Black Metal
post Apr 22 2017, 15:34:15
Post #1

Правь статус, ####!616
**************
Group: Металариец
Posts: 5,414
Releases: 3943
From: 55°35’N 38°08’E
On Forums: 12 years 4 months
Thanks: 73920 time(s)
Unknown


(IMG:http://metalarea.org/images/audiocovers/2017_Apr/acov_tid287669_thumb.jpg)

*Artist: Caoimhín
*Album: The Age Of Wolves [ep]
*Year: 2017
*Genre: Atmospheric Post-Black Metal
*Country: United States (IMG:http://metalarea.org/forum/style_images/flags/United%20States.png)
*Format: mp3@CBR320kbps
*Size: 59MB

Tracklist:
1. Víðarr 11:38
2. Níðhöggr 11:17
******************************
Total playing time: 22:55




Extended info
Caoimhín is a new international black metal project split between United States and Norway.


Technical info
(IMG:http://metalarea.org/images/spectrogram/2017_Apr/62c085310d8dfd6e873dd11edf1f7176.png)
Input File: 01 V??arr.mp3
Channels : 2
Sample Rate : 44100
Precision : 16-bit
Duration : 00:11:39.00 = 30825900 samples = 52425 CDDA sectors
File Size : 28.0M
Bit Rate : 321k
Sample Encoding: MPEG audio (layer I, II or III)
Comments :
Title=01 VГ­Г°arr
Artist=CaoimhГ­n
Album=The Age of Wolves
Tracknumber=1
Year=2017
Genre=Metal



Register


Go to the top of the page
  Insert nick Quick quote
+Quote Post
 
Start new topic
Replies (1 - 4)
post Dec 26 2019, 05:06:22
Post #2

Group: Подсевший
Posts: 47
Releases: 0
On Forums: 11 months 5 days
Thanks: 2 time(s)
Unknown


Хороший альбом! Можно перезалить в flac?
Go to the top of the page
  Insert nick Quick quote
+Quote Post
post Jan 1 2020, 06:54:48
Post #3

Group Icon
Group: S-moderation team
Posts: 17,894
Releases: 1441
From: Zagreb
On Forums: 9 years 9 months
Thanks: 81971 time(s)
Croatia


Register


Go to the top of the page
  Insert nick Quick quote
+Quote Post
post Oct 16 2020, 14:27:42
Post #4

Forever Underground
**************
Group: Металариец
Posts: 7,693
Releases: 0
On Forums: 5 years 7 months
Thanks: 10147 time(s)
Unknown


This EP is good, however I think the songs of all these atmospheric/post-black metal bands are really too long, so the risk is that they easily turn to be a bit boring.... (IMG:style_emoticons/default/16.gif)
Go to the top of the page
  Insert nick Quick quote
+Quote Post
post Oct 18 2020, 11:22:37
Post #5

####!111
**************
Group: Металариец
Posts: 4,257
Releases: 128
From: The Mountain Of DOOM
On Forums: 13 years 1 month
Thanks: 5902 time(s)
Russian Federation


Что ж вы молчали, что тут участники из Funeral и Omit?!
Go to the top of the page
  Insert nick Quick quote
+Quote Post

Reply to this topicStart new topic
1 User(s) are reading this topic (1 Guests and 0 Anonymous Users)
0 Members:

 



- Lo-Fi Version Support form
Copyrights and abuse reports form
Time is now: 30th November 2020 - 02:16:23