Welcome Guest ( Log In | Register )

> ViperForce - Venomous Metal [demo] (2017), Thrash Metal
post Apr 25 2017, 15:51:27
Post #1

Serial Uploader
Group Icon
Group: V.I.P
Posts: 33,280
Releases: 31556
From: Lithuania
On Forums: 10 years 5 months
Thanks: 360439 time(s)
Lithuania


(IMG:http://metalarea.org/images/audiocovers/2017_Apr/acov_tid287809_thumb.jpg)

*Artist: ViperForce
*Album: Venomous Metal [demo]
*Year: 2017
*Genre: Thrash Metal
*Country: Colombia (IMG:http://metalarea.org/forum/style_images/flags/Colombia.png)
*Format: mp3@VBR268kbps
*Size: 30MB

Tracklist:
01. Midnight Slaughter 03:21
02. Skullcrusher 03:50
03. The March Of The Troops Of Death 04:39
04. Thrash Overdose 02:58
******************************
Total playing time: 14:48


(IMG:http://metalarea.org/images/youtube.png)

Extended info
Scene CD-rip

(IMG:http://metalarea.org/images/spectrogram/2017_Apr/9ab70613e77fbf2e78d67a48cbfe4974.png)
Input File: 02-viperforce-skullcrusher.mp3
Channels : 2
Sample Rate : 44100
Precision : 16-bit
Duration : 00:03:50.19 = 10151203 samples = 17264 CDDA sectors
File Size : 7.85M
Bit Rate : 273k
Sample Encoding: MPEG audio (layer I, II or III)
Comments :
Title=Skullcrusher
Artist=ViperForce
Album=Venomous Metal
Tracknumber=2/4
Year=2017-00-00
Genre=Thrash Metal


Register


Go to the top of the page
  Insert nick Quick quote
+Quote Post
 
Start new topic
Replies (1 - 2)
post Aug 10 2018, 10:24:35
Post #2

Маньяк
**********
Group: Металариец
Posts: 1,430
Releases: 0
On Forums: 2 years 4 months
Thanks: 63 time(s)
United Kingdom


Please can you re-up
Go to the top of the page
  Insert nick Quick quote
+Quote Post
post Aug 10 2018, 11:03:14
Post #3

...
Group Icon
Group: S-moderation team
Posts: 7,465
Releases: 1289
On Forums: 7 years 8 months
Thanks: 36166 time(s)
Croatia


Register


Thanks:
Go to the top of the page
  Insert nick Quick quote
+Quote Post

Reply to this topicStart new topic
2 User(s) are reading this topic (2 Guests and 0 Anonymous Users)
0 Members:

 



- Lo-Fi Version Support form
Copyrights and abuse reports form
Time is now: 14th November 2018 - 14:27:42