Welcome Guest ( Log In | Register )

> Chaosbay - Of Cutting Cords [ep] (2017), Progressive Metal
post Apr 28 2017, 16:10:41
Post #1

Serial Uploader
Group Icon
Group: V.I.P
Posts: 37,532
Releases: 35706
From: Lithuania
On Forums: 12 years 10 months
Thanks: 431418 time(s)
Lithuania


(IMG:http://metalarea.org/images/audiocovers/2017_Apr/acov_tid287962_thumb.jpg)

*Artist: Chaosbay
*Album: Of Cutting Cords [ep]
*Year: 2017
*Genre: Progressive Metal
*Country: Germany (IMG:http://metalarea.org/forum/style_images/flags/Germany.png)
*Format: mp3@CBR320kbps
*Size: 54MB

Tracklist:
01. Spite 04:24
02. Of Cutting Cords 04:29
03. Merlot Effekt 07:15
04. Ocean Zest 09:22
******************************
Total playing time: 25:30



(IMG:http://metalarea.org/images/youtube.png)

Technical info
(IMG:http://metalarea.org/images/spectrogram/2017_Apr/22b67e5e595de3fd823f04c214e608da.png)
Input File: 02-chaosbay-of_cutting_cords-b5f1bb44.mp3
Channels : 2
Sample Rate : 44100
Precision : 16-bit
Duration : 00:04:29.72 = 11894476 samples = 20228.7 CDDA sectors
File Size : 11.0M
Bit Rate : 325k
Sample Encoding: MPEG audio (layer I, II or III)
Comments :
Title=Of Cutting Cords
Artist=Chaosbay
Album=Of Cutting Cords
Tracknumber=2/4
Year=2017
Genre=9



Register


Go to the top of the page
  Insert nick Quick quote
+Quote Post
2 Pages V  < 1 2  
Start new topic
Replies (30 - 32)
post Oct 20 2020, 12:59:19
Post #31

Литр
*
Group: Подсевший
Posts: 94
Releases: 0
From: Sofia
On Forums: 13 years 6 months
Thanks: 10 time(s)
Bulgaria


Thank you very much, my friend Shadowman (IMG:style_emoticons/default/bye.gif) (IMG:style_emoticons/default/9.gif) (IMG:style_emoticons/default/9.gif)

QUOTE(Shadowman @ Oct 20 2020, 11:44:20) *

Go to the top of the page
  Insert nick Quick quote
+Quote Post
post Oct 20 2020, 13:05:37
Post #32

на аватаре не я
**************
Group: Металариец
Posts: 5,216
Releases: 8
From: "Самопровозглашенная ДНР" (с)
On Forums: 11 years 9 months
Thanks: 2725 time(s)
Russian Federation


ЦИТАТА(kastrup @ Oct 20 2020, 14:59:19) *
Thank you very much, my friend Shadowman (IMG:style_emoticons/default/bye.gif) (IMG:style_emoticons/default/9.gif) (IMG:style_emoticons/default/9.gif)

Your welcome, bro (IMG:style_emoticons/default/9.gif)
Go to the top of the page
  Insert nick Quick quote
+Quote Post
post Oct 20 2020, 13:10:04
Post #33

Литр
*
Group: Подсевший
Posts: 94
Releases: 0
From: Sofia
On Forums: 13 years 6 months
Thanks: 10 time(s)
Bulgaria


What we have here is a fantastic progressive metal band from Germany !!
More prog fans should consider to check out any of their albums or EPs ! (IMG:style_emoticons/default/19.gif) (IMG:style_emoticons/default/19.gif) (IMG:style_emoticons/default/pray.gif) (IMG:style_emoticons/default/pray.gif) (IMG:style_emoticons/default/pray.gif)


QUOTE(Shadowman @ Oct 20 2020, 12:05:37) *
Your welcome, bro (IMG:style_emoticons/default/9.gif)


Thanks:
(1) Shadowman,
Go to the top of the page
  Insert nick Quick quote
+Quote Post

2 Pages V  < 1 2
Reply to this topicStart new topic
1 User(s) are reading this topic (1 Guests and 0 Anonymous Users)
0 Members:

 



- Lo-Fi Version Support form
Copyrights and abuse reports form
Time is now: 21st April 2021 - 12:55:25