Welcome Guest ( Log In | Register )

> Ebrietor - Sound Of Violence (2017), Death Metal
post Apr 30 2017, 08:44:30
Post #1

Аннигилятор пивА
Group Icon
Group: V.I.P
Posts: 46,787
Releases: 14052
From: Koenigsberg - TILZIT
On Forums: 12 years 3 weeks
Thanks: 311846 time(s)
Russian Federation


(IMG:https://metalarea.org/images/audiocovers/2017_Apr/acov_tid288025_thumb.jpg)

*Artist: Ebrietor
*Album: Sound Of Violence
*Year: 2017
*Genre: Death Metal
*Country: Sweden (IMG:https://metalarea.org/forum/style_images/flags/Sweden.png)
*Format: mp3@CBR320kbps
*Size: 90MB

Tracklist:
01. The Plot Sickens
02. Hold
03. Breaking Point
04. Parasites
05. Curing The Human Condition
06. Resistance
07. The Illusion Of Will
08. Drawn And Quartered
09. Every Storm
10. Disciplined By Nazis Before The Altar Of Trust
11. As They Hang
******************************
Total playing time: 38:48



Extended info
Jonas Flodin - Bass
Simon Westerberg - Drums
Markus Risberg - Guitars
Erik Flodin - Guitars (ex-Retribution)
Fredrik Nyman - Vocals (Sawchain, ex-Retribution)




Technical info
(IMG:https://metalarea.org/images/spectrogram/2017_Apr/33aef22e1e8040e029dd324e47f8092a.png)
Input File: 03 - Breaking Point.mp3
Channels : 2
Sample Rate : 44100
Precision : 16-bit
Duration : 00:02:45.70 = 7307282 samples = 12427.4 CDDA sectors
File Size : 6.75M
Bit Rate : 326k
Sample Encoding: MPEG audio (layer I, II or III)
Comments :
Title=Breaking Point
Artist=Ebrietor
Album=Sound of Violence
Tracknumber=3/11
Year=2017



Register





Go to the top of the page
  Insert nick Quick quote
+Quote Post
 
Start new topic
Replies (1 - 4)
post Apr 30 2017, 13:26:15
Post #2

ME[ta]LLOMAN
**************
Group: Металариец
Posts: 4,835
Releases: 3
From: Hughes'sRegion\Avdeyevka
On Forums: 12 years 2 months
Thanks: 1731 time(s)
Honduras


баловство это всё..
Go to the top of the page
  Insert nick Quick quote
+Quote Post
post Apr 30 2017, 15:27:07
Post #3

Правь статус, ####!111
**************
Group: Металариец
Posts: 13,332
Releases: 9409
From: Г.Харьков
On Forums: 6 years 1 month
Thanks: 153555 time(s)
Unknown


хардкоровщина какая то (IMG:style_emoticons/default/22.gif)
Go to the top of the page
  Insert nick Quick quote
+Quote Post
post Apr 30 2017, 16:23:41
Post #4

Четыре Литра
****
Group: Металариец
Posts: 337
Releases: 1
From: АР Крым, Симферополь
On Forums: 10 years 2 months
Thanks: 113 time(s)
Russian Federation


Дэт-метал (местами мело-дэт) с хардкором, ничё так, ну и ни дэткор, что самое главное!! Вообщем весьма бодренько, неплохо так!! (IMG:style_emoticons/default/20.gif) (IMG:style_emoticons/default/9.gif) (IMG:style_emoticons/default/9.gif)
Go to the top of the page
  Insert nick Quick quote
+Quote Post
post Sep 13 2017, 11:55:04
Post #5

Маньяк
**********
Group: Металариец
Posts: 1,158
Releases: 115
On Forums: 8 years 10 months
Thanks: 892 time(s)
Kazakhstan


Муть какая-то, местами интересная. Напомнило крайний альбом их соотечественников Disfear. Все же больше дибитхардкор на мой взгляд, но концентрация дета к концу повышается
Go to the top of the page
  Insert nick Quick quote
+Quote Post

Reply to this topicStart new topic
1 User(s) are reading this topic (1 Guests and 0 Anonymous Users)
0 Members:

 



- Lo-Fi Version Support form
Copyrights and abuse reports form
Time is now: 19th June 2018 - 08:00:28