Welcome Guest ( Log In | Register )

> Ebrietor - Sound Of Violence (2017), Death Metal
post Apr 30 2017, 08:44:30
Post #1

Аннигилятор пивА
Group Icon
Group: V.I.P
Posts: 45,729
Releases: 13651
From: Koenigsberg - TILZIT
On Forums: 11 years 8 months
Thanks: 302099 time(s)
Russian Federation


(IMG:https://metalarea.org/images/audiocovers/2017_Apr/acov_tid288025_thumb.jpg)

*Artist: Ebrietor
*Album: Sound Of Violence
*Year: 2017
*Genre: Death Metal
*Country: Sweden (IMG:https://metalarea.org/forum/style_images/flags/Sweden.png)
*Format: mp3@CBR320kbps
*Size: 90MB

Tracklist:
01. The Plot Sickens
02. Hold
03. Breaking Point
04. Parasites
05. Curing The Human Condition
06. Resistance
07. The Illusion Of Will
08. Drawn And Quartered
09. Every Storm
10. Disciplined By Nazis Before The Altar Of Trust
11. As They Hang
******************************
Total playing time: 38:48



Extended info
Jonas Flodin - Bass
Simon Westerberg - Drums
Markus Risberg - Guitars
Erik Flodin - Guitars (ex-Retribution)
Fredrik Nyman - Vocals (Sawchain, ex-Retribution)




Technical info
(IMG:https://metalarea.org/images/spectrogram/2017_Apr/33aef22e1e8040e029dd324e47f8092a.png)
Input File: 03 - Breaking Point.mp3
Channels : 2
Sample Rate : 44100
Precision : 16-bit
Duration : 00:02:45.70 = 7307282 samples = 12427.4 CDDA sectors
File Size : 6.75M
Bit Rate : 326k
Sample Encoding: MPEG audio (layer I, II or III)
Comments :
Title=Breaking Point
Artist=Ebrietor
Album=Sound of Violence
Tracknumber=3/11
Year=2017



Register





Вернуться к началу страницы
  Insert nick Quick quote
+Цитировать сообщение
 
Создать новую тему
Replies (1 - 4)
post Apr 30 2017, 13:26:15
Post #2

ME[ta]LLOMAN
**************
Group: Металариец
Posts: 4,817
Releases: 3
From: Hughes'sRegion\Avdeyevka
On Forums: 11 years 10 months
Thanks: 1697 time(s)
Honduras


баловство это всё..
Вернуться к началу страницы
  Insert nick Quick quote
+Цитировать сообщение
post Apr 30 2017, 15:27:07
Post #3

Правь статус, ####!111
**************
Group: Металариец
Posts: 12,190
Releases: 8806
From: Г.Харьков
On Forums: 5 years 9 months
Thanks: 140983 time(s)
Unknown


хардкоровщина какая то (IMG:style_emoticons/default/22.gif)
Вернуться к началу страницы
  Insert nick Quick quote
+Цитировать сообщение
post Apr 30 2017, 16:23:41
Post #4

Четыре Литра
****
Group: Металариец
Posts: 325
Releases: 1
From: АР Крым, Симферополь
On Forums: 9 years 10 months
Thanks: 99 time(s)
Russian Federation


Дэт-метал (местами мело-дэт) с хардкором, ничё так, ну и ни дэткор, что самое главное!! Вообщем весьма бодренько, неплохо так!! (IMG:style_emoticons/default/20.gif) (IMG:style_emoticons/default/9.gif) (IMG:style_emoticons/default/9.gif)
Вернуться к началу страницы
  Insert nick Quick quote
+Цитировать сообщение
post Sep 13 2017, 11:55:04
Post #5

Маньяк
**********
Group: Металариец
Posts: 1,143
Releases: 113
On Forums: 8 years 6 months
Thanks: 724 time(s)
Kazakhstan


Муть какая-то, местами интересная. Напомнило крайний альбом их соотечественников Disfear. Все же больше дибитхардкор на мой взгляд, но концентрация дета к концу повышается
Вернуться к началу страницы
  Insert nick Quick quote
+Цитировать сообщение

ОтветитьСоздать новую тему
1 User(s) are reading this topic (1 Guests and 0 Anonymous Users)
0 Members:

 



- Lo-Fi Version Support form
Copyrights and abuse reports form
Time is now: 19th February 2018 - 17:03:49