Welcome Guest ( Log In | Register )

> Brume - Rooster (2017), Stoner/Doom Metal
post May 2 2017, 15:43:04
Post #1

Serial Uploader
Group Icon
Group: V.I.P
Posts: 36,814
Releases: 35001
From: Lithuania
On Forums: 11 years 7 months
Thanks: 411112 time(s)
Lithuania


(IMG:http://metalarea.org/images/audiocovers/2017_May/acov_tid288124_thumb.jpg)

*Artist: Brume
*Album: Rooster
*Year: 2017
*Genre: Stoner/Doom Metal
*Country: United States (IMG:http://metalarea.org/forum/style_images/flags/United%20States.png)
*Format: mp3@CBR320kbps
*Size: 119MB

Tracklist:
01. Grit And Pearls 10:06
02. Harold 07:29
03. Reckon 09:12
04. Call The Serpent's Bluff 09:28
05. Welter 02:55
06. Tradewind 11:48
******************************
Total playing time: 50:58



(IMG:http://metalarea.org/images/youtube.png)

Technical info
(IMG:http://metalarea.org/images/spectrogram/2017_May/4fb138c21bc87667dab97eaa5cb81356.png)
Input File: 02. Harold.mp3
Channels : 2
Sample Rate : 44100
Precision : 16-bit
Duration : 00:07:30.03 = 19846323 samples = 33752.2 CDDA sectors
File Size : 18.5M
Bit Rate : 328k
Sample Encoding: MPEG audio (layer I, II or III)
Comments :
Title=Harold
Artist=Brume
Album=Rooster
Tracknumber=2/6
Year=2017



Register


Go to the top of the page
  Insert nick Quick quote
+Quote Post
 
Start new topic
Replies (1 - 6)
post May 2 2017, 16:54:31
Post #2

ME[ta]LLOMAN
**************
Group: Металариец
Posts: 4,948
Releases: 3
From: Avdeyevka
On Forums: 13 years 9 months
Thanks: 1910 time(s)
Honduras


ГОДНОТА! (IMG:style_emoticons/default/9.gif)
Go to the top of the page
  Insert nick Quick quote
+Quote Post
post May 2 2017, 17:36:44
Post #3

Detective Godzilla
Group Icon
Group: Moderation team
Posts: 3,290
Releases: 283
On Forums: 8 years 11 months
Thanks: 10126 time(s)
Russian Federation


Прошлый релиз был крутым. Посмотрим, чего тут они нафигачили
Go to the top of the page
  Insert nick Quick quote
+Quote Post
post May 13 2017, 07:26:25
Post #4

MDM-Thrash Metal
**************
Group: Металариец
Posts: 9,203
Releases: 767
From: Одесса
On Forums: 12 years 5 months
Thanks: 20670 time(s)
Ukraine


Register


Thanks:
Go to the top of the page
  Insert nick Quick quote
+Quote Post
post May 23 2017, 10:37:44
Post #5

Кожаный ублюдок
**************
Group: Металариец
Posts: 3,098
Releases: 6
From: Алчевск (early) Некросибирск (now)
On Forums: 10 years 8 months
Thanks: 1871 time(s)
Russian Federation


Думаю, что два года срок не особенно большой, хотя как знать. Ведь тут не то, что каждый год, а каждый день выходит огромнейшее количество музыки, которую хочется послушать, но с объемом таким становится справится все сложнее и сложнее. Но что-то потянуло не в ту степь меня.
Два года назад американское трио Brume выпустило дебютный миньон «Donkey» и вот теперь идеи музыкантов из Сан-Франциско получили продолжение в полноформатном «Rooster». Собственно закукарекала нам данная птица снова годного стоунер/дума, с прекрасным вокалом Susie McMullan, которая выступает тут не только в роли вокалистки, но еще и поигрывает на басу. Влияние сладжа на данном релизе не так ощутимо, зато стало куда больше психоделии, что никак не есть плохо. Также стоит отдельно упомянуть хоть и не шибко длинную, но чертовски неплохую акустическую «Welter», как тему очень и очень достойную. Чем-то ребята даже Windhand реально напоминать начали, но со своими отличительными чертами и почерком.
В общем дебют можно назвать состоявшимся, хоть на шедевр он и не тянет. Просто крепкий такой опус, на котором можно поторчать пару дней, но с перерывами. В топ года будет включен! (IMG:style_emoticons/default/9.gif) (IMG:style_emoticons/default/9.gif) (IMG:style_emoticons/default/9.gif)
Go to the top of the page
  Insert nick Quick quote
+Quote Post
post Jun 1 2017, 11:35:19
Post #6

South Of Heaven /адепт ВУДУ
**************
Group: Металариец
Posts: 13,960
Releases: 9
On Forums: 9 years 9 months
Thanks: 5320 time(s)
Unknown


Мадам не только вокалит, но ещё и басует)

https://www.metal-archives.com/artists/Susie_McMullan/613526

Хороший альбом.
Go to the top of the page
  Insert nick Quick quote
+Quote Post
post Jun 1 2017, 12:53:08
Post #7

\m/
Group Icon
Group: S-moderation team
Posts: 7,733
Releases: 19
From: Петропавловск-Камчатский
On Forums: 10 years 7 months
Thanks: 7375 time(s)
Russian Federation


ЦИТАТА(avkruchinin @ 1st June 2017 - 22:35:19) *
Мадам не только вокалит, но ещё и басует)

Бассит и голосcит (IMG:style_emoticons/default/15.gif)


Thanks:
Go to the top of the page
  Insert nick Quick quote
+Quote Post

Reply to this topicStart new topic
1 User(s) are reading this topic (1 Guests and 0 Anonymous Users)
0 Members:

 



- Lo-Fi Version Support form
Copyrights and abuse reports form
Time is now: 22nd January 2020 - 23:38:03