Welcome Guest ( Log In | Register )

> Demonsmoke - Morphine Moonshine (2017), Doom/Stoner Metal/Sludge
post May 2 2017, 20:52:19
Post #1

Thrash, Beer & Violence
**************
Group: Металариец
Posts: 5,503
Releases: 2772
From: Крестов Брод (Russland)
On Forums: 12 years 11 months
Thanks: 40496 time(s)
Russian Federation


(IMG:http://metalarea.org/images/audiocovers/2017_May/acov_tid288140_thumb.jpg)

*Artist: Demonsmoke
*Album: Morphine Moonshine
*Year: 2017
*Genre: Doom/Stoner Metal/Sludge
*Country: United States (IMG:http://metalarea.org/forum/style_images/flags/United%20States.png)
*Format: mp3@CBR320kbps
*Size: 114MB

Tracklist:
1. Creeping Down Your Neck 04:58
2. Through The Sun 05:46
3. Morphine Moonshine 07:27
4. Spewing Disgust 04:30
5. Sever 02:16
6. Set In Stoned 06:14
7. Junkie 05:21
8. Backside Of The Spoon 07:20
9. Sawed Off Sociopath 05:06
******************************
Total playing time: 48:58




Extended info


Technical info
(IMG:http://metalarea.org/images/spectrogram/2017_May/ce170e25b6dcc782bb48c2307fe6abda.png)
Input File: 01. Creeping Down Your Neck.mp3
Channels : 2
Sample Rate : 44100
Precision : 16-bit
Duration : 00:04:58.11 = 13146827 samples = 22358.5 CDDA sectors
File Size : 12.2M
Bit Rate : 327k
Sample Encoding: MPEG audio (layer I, II or III)
Comments :
Title=Creeping Down Your Neck
Artist=DEMONSMOKE
Album=Morphine Moonshine
Tracknumber=1
Year=2017



Register


Go to the top of the page
  Insert nick Quick quote
+Quote Post
 
Start new topic
Replies (1 - 3)
post Dec 11 2018, 14:59:20
Post #2

Group: Подсевший
Posts: 15
Releases: 0
On Forums: 7 years 6 months
Thanks: 2 time(s)
Unknown


Links are dead :/
Go to the top of the page
  Insert nick Quick quote
+Quote Post
post Dec 11 2018, 15:14:48
Post #3

Правь статус, ####!111
**************
Group: Металариец
Posts: 47,358
Releases: 742
On Forums: 11 years 3 months
Thanks: 40344 time(s)
Russian Federation


Биздадейший альбом. Ребята назвались по первому альбому Dopethrone, cобсна канадцы и слышны в музыке сих чертей. Грязный, мерзотный, блюзовый сырющий сладж с нотками стоунера и чадящим вокалом.

@320

Register
Go to the top of the page
  Insert nick Quick quote
+Quote Post
post Sep 21 2020, 07:59:20
Post #4

Правь статус, ####!111
**************
Group: Металариец
Posts: 3,325
Releases: 0
From: MoscoW
On Forums: 13 years 9 months
Thanks: 2430 time(s)
Russian Federation


Можно скачать Б/П в 320kbps!!!:

(IMG:style_emoticons/default/metaler.gif)
Go to the top of the page
  Insert nick Quick quote
+Quote Post

Reply to this topicStart new topic
1 User(s) are reading this topic (1 Guests and 0 Anonymous Users)
0 Members:

 



- Lo-Fi Version Support form
Copyrights and abuse reports form
Time is now: 25th September 2020 - 04:56:29