Welcome Guest ( Log In | Register )

> Gravil - No More Forgiveness (2017), Melodic Death Metal
post May 4 2017, 16:04:18
Post #1

Serial Uploader
Group Icon
Group: V.I.P
Posts: 33,389
Releases: 31659
From: Lithuania
On Forums: 10 years 6 months
Thanks: 361702 time(s)
Lithuania


(IMG:http://metalarea.org/images/audiocovers/2017_May/acov_tid288272_thumb.jpg)

*Artist: Gravil
*Album: No More Forgiveness
*Year: 2017
*Genre: Melodic Death Metal
*Country: United Kingdom (IMG:http://metalarea.org/forum/style_images/flags/United%20Kingdom.png)
*Format: mp3@CBR320kbps
*Size: 93MB

Tracklist:
01. Detonate 04:29
02. Are We Alive 03:42
03. I Am The Blood 03:44
04. Plagues, Theives And Murderers 05:09
05. Locate The Traitor 04:59
06. Choke In Silence 04:40
07. Fractured, Divided 04:28
08. Decommissioned 03:51
09. Forever Is A Prison 04:42
10. One Eyed King 05:21
******************************
Total playing time: 45:05

(IMG:http://metalarea.org/images/myspace.png)



(IMG:http://metalarea.org/images/youtube.png)

Technical info
(IMG:http://metalarea.org/images/spectrogram/2017_May/d3906f05412b29139f14fe26e0f2c0db.png)
Input File: 02. Are We Alive.mp3
Channels : 2
Sample Rate : 44100
Precision : 16-bit
Duration : 00:03:34.93 = 9478501 samples = 16119.9 CDDA sectors
File Size : 8.63M
Bit Rate : 321k
Sample Encoding: MPEG audio (layer I, II or III)
Comments :
Title=Are We Alive
Artist=GraVil
Album=No More Forgiveness
Tracknumber=2
Genre=Metal
Discnumber=1



Register


Go to the top of the page
  Insert nick Quick quote
+Quote Post
 
Start new topic
Replies (1 - 4)
post May 4 2017, 20:31:59
Post #2

Тридцать лет на борту "Тяжёлого" крейсера
***********
Group: Металариец
Posts: 1,867
Releases: 0
From: Питер
On Forums: 11 years 5 months
Thanks: 431 time(s)
Russian Federation


По сравнению с прошлым - несколько круче, больше МДМ, меньше кора. Зайдёт под пиво


Thanks:
(1) Andrew,
Go to the top of the page
  Insert nick Quick quote
+Quote Post
post May 11 2017, 21:59:24
Post #3

MDM-Thrash Metal
**************
Group: Металариец
Posts: 7,297
Releases: 423
From: Одесса
On Forums: 11 years 4 months
Thanks: 13872 time(s)
Ukraine


Прослеживается, к счастью, такая тенденция. Меньше моднявости и больше мелодеза в игре.
Но драйва, напора и мощи команде не занимать! Добротно звучит.
Go to the top of the page
  Insert nick Quick quote
+Quote Post
post May 16 2017, 02:51:25
Post #4

Ъ
**************
Group: Металариец
Posts: 9,273
Releases: 9
On Forums: 9 years 11 months
Thanks: 1777 time(s)
Sweden


Неплохой третьесорт на пару раз послушать.
Go to the top of the page
  Insert nick Quick quote
+Quote Post
post Nov 14 2017, 18:32:27
Post #5

Четыре Литра
****
Group: Металариец
Posts: 362
Releases: 0
On Forums: 2 years 4 months
Thanks: 27 time(s)
Unknown


Modern Melodic Death Metal.
Go to the top of the page
  Insert nick Quick quote
+Quote Post

Reply to this topicStart new topic
1 User(s) are reading this topic (1 Guests and 0 Anonymous Users)
0 Members:

 



- Lo-Fi Version Support form
Copyrights and abuse reports form
Time is now: 12th December 2018 - 03:34:24