Welcome Guest ( Log In | Register )

> Misanthropic Path - A Bluntly Description Of The Present (2007), Black Metal
post May 4 2017, 16:17:29
Post #1

Serial Uploader
Group Icon
Group: V.I.P
Posts: 31,468
Releases: 29800
From: Lithuania
On Forums: 9 years 8 months
Thanks: 342147 time(s)
Lithuania


(IMG:http://metalarea.org/images/audiocovers/2017_May/acov_tid288273_thumb.jpg)

*Artist: Misanthropic Path
*Album: A Bluntly Description Of The Present
*Year: 2007
*Genre: Black Metal
*Country: Germany (IMG:http://metalarea.org/forum/style_images/flags/Germany.png)
*Format: mp3@CBR320kbps
*Size: 69MB

Tracklist:
01. A Bluntly Description Of The Present 04:01
02. The Whelps Path 07:39
03. Chapters 06:03
04. Als Ich Euch Verließ 10:12
05. Looking Forward Decay 05:04
******************************
Total playing time: 32:59

Technical info
(IMG:http://metalarea.org/images/spectrogram/2017_May/223ca0286e974fe8c448203c0789dde1.png)
Input File: 02. The Whelps Path.mp3
Channels : 2
Sample Rate : 44100
Precision : 16-bit
Duration : 00:07:39.23 = 20251867 samples = 34442 CDDA sectors
File Size : 18.4M
Bit Rate : 320k
Sample Encoding: MPEG audio (layer I, II or III)
Comments :
Title=The Whelps Path
Artist=Misanthropic Path
Album=A Bluntly Description Of The Present
Tracknumber=02
Year=2007
Genre=Black Metal



Register


Вернуться к началу страницы
  Insert nick Quick quote
+Цитировать сообщение
 
Создать новую тему
Replies (1 - 1)
post Nov 14 2017, 18:35:09
Post #2

Три Литра
***
Group: Завсегдатай
Posts: 240
Releases: 0
On Forums: 1 year 7 months
Thanks: 16 time(s)
Unknown


Not good recording quality.
Вернуться к началу страницы
  Insert nick Quick quote
+Цитировать сообщение

ОтветитьСоздать новую тему
1 User(s) are reading this topic (1 Guests and 0 Anonymous Users)
0 Members:

 



- Lo-Fi Version Support form
Copyrights and abuse reports form
Time is now: 24th February 2018 - 05:32:46