Welcome Guest ( Log In | Register )

> 

Здесь релизы с живыми прямыми ссылками на lossless

> Wormwitch - Strike Mortal Soil (2017), Black/Doom Metal
post May 11 2017, 16:04:29
Post #1

Serial Uploader
Group Icon
Group: V.I.P
Posts: 37,112
Releases: 35296
From: Lithuania
On Forums: 11 years 9 months
Thanks: 418085 time(s)
Lithuania


(IMG:https://metalarea.org/images/audiocovers/2017_May/acov_tid288607_thumb.jpg)

*Artist: Wormwitch
*Album: Strike Mortal Soil
*Year: 2017
*Genre: Black/Doom Metal
*Country: Canada (IMG:https://metalarea.org/forum/style_images/flags/Canada.png)
*Format: mp3@CBR320kbps
*Size: 84MB

Tracklist:
01. As Above 01:50
02. Howling From The Grave 03:00
03. Weregild 04:25
04. Even The Sun Will Die 05:47
05. Relentless Death 03:25
06. Cerulean Abyss 03:49
07. Everlasting Lie 04:02
08. ...And Smote His Ruin Upon The Mountainside 05:46
09. Mantle Of Ignorance 02:42
10. So Below 04:30
******************************
Total playing time: 39:16



Technical info
(IMG:https://metalarea.org/images/spectrogram/2017_May/b435ca22ce8054c62563c3e2d7675c5a.png)
Input File: 02-wormwitch-howling_from_the_grave-950ca223.mp3
Channels : 2
Sample Rate : 44100
Precision : 16-bit
Duration : 00:03:00.08 = 7941616 samples = 13506.1 CDDA sectors
File Size : 7.36M
Bit Rate : 327k
Sample Encoding: MPEG audio (layer I, II or III)
Comments :
Title=Howling from the Grave
Artist=Wormwitch
Album=Strike Mortal Soil
Tracknumber=2/10
Year=2017
Genre=9



Register


Go to the top of the page
  Insert nick Quick quote
+Quote Post
 
Start new topic
Replies (1 - 5)
post May 11 2017, 18:10:01
Post #2

Morbid Angel
**************
Group: Металариец
Posts: 4,172
Releases: 0
From: Литва г.Клайпеда
On Forums: 13 years 3 weeks
Thanks: 1794 time(s)
Lithuania


http://wormwitch.com/album/strike-mortal-soil
Go to the top of the page
  Insert nick Quick quote
+Quote Post
post Feb 6 2018, 19:57:04
Post #3

Quaerite Lux in Tenebris
**************
Group: Металариец
Posts: 2,195
Releases: 40
From: Micsődőllő
On Forums: 9 years 8 months
Thanks: 4491 time(s)
Unknown


Линк из сети / параметры те же:
Register

Только это не Black/Doom, а скорее (Progressive) Black Metal/Black'n'Roll.


Thanks:
Go to the top of the page
  Insert nick Quick quote
+Quote Post
post Jan 10 2020, 13:58:51
Post #4

Правь статус, ####!111
**************
Group: Металариец
Posts: 3,234
Releases: 1
From: Рейх
On Forums: 13 years 7 months
Thanks: 891 time(s)
Ukraine


можно обновить
Go to the top of the page
  Insert nick Quick quote
+Quote Post
post Jan 10 2020, 14:07:12
Post #5

Добрый
**************
Group: Металариец
Posts: 3,386
Releases: 0
On Forums: 1 year 9 months
Thanks: 4838 time(s)
Russian Federation


84 mb/320 kbps
Register


Thanks:
(1) varlam4,
Go to the top of the page
  Insert nick Quick quote
+Quote Post
post Jan 10 2020, 15:50:10
Post #6


Group Icon
Group: S-moderation team
Posts: 14,859
Releases: 1440
From: Zagreb
On Forums: 9 years 1 month
Thanks: 65057 time(s)
Croatia


Register


Thanks:
(1) Olethros,
Go to the top of the page
  Insert nick Quick quote
+Quote Post

Reply to this topicStart new topic
1 User(s) are reading this topic (1 Guests and 0 Anonymous Users)
0 Members:

 



- Lo-Fi Version Support form
Copyrights and abuse reports form
Time is now: 1st April 2020 - 15:48:55