Welcome Guest ( Log In | Register )

> Sarsekim - Aegri Somnia Vana [ep] (2000), Technical/Progressive Death Metal
post May 12 2017, 08:39:16
Post #1

Аннигилятор пивА
Group Icon
Group: V.I.P
Posts: 50,835
Releases: 15861
From: Koenigsberg - TILZIT
On Forums: 12 years 6 months
Thanks: 345783 time(s)
Russian Federation


(IMG:https://metalarea.org/images/audiocovers/2017_May/acov_tid288652_thumb.jpg)

*Artist: Sarsekim
*Album: Aegri Somnia Vana [ep]
*Year: 2000
*Genre: Technical/Progressive Death Metal
*Country: Australia (IMG:https://metalarea.org/forum/style_images/flags/Australia.png)
*Format: mp3@CBR320kbps
*Size: 51MB

Tracklist:
01. Suffer Unto Me (As I Bleed Unto Myself) 02:50
02. Entwined In Unsilent Horror 04:56
03. Legions Of The Chaos Dead Have Taken Control Of The Gates To Hell 04:04
04. Swallowed By The Nonexistence 02:35
05. Shrapnel 03:20
06. Living A Perpetual Dream 03:57
******************************
Total playing time: 21:42




Extended info
David Williams - Vocals
Aaron Tuck - Guitars
Brendan Mueller - Guitars
Nicolas Cole - Drums
Jesse Van Beurde - Bass


Technical info
(IMG:https://metalarea.org/images/spectrogram/2017_May/c0e4c22a428864536689dd007a82b710.png)
Input File: SARSEKIM - Aegri Somnia Vana - 05 Shrapnel.mp3
Channels : 2
Sample Rate : 44100
Precision : 16-bit
Duration : 00:03:20.93 = 8860837 samples = 15069.5 CDDA sectors
File Size : 8.17M
Bit Rate : 325k
Sample Encoding: MPEG audio (layer I, II or III)
Comments :
Title=Shrapnel
Artist=SARSEKIM
Album=Aegri Somnia Vana
Tracknumber=5
Year=2000



Register


Go to the top of the page
  Insert nick Quick quote
+Quote Post
 
Start new topic
Replies (1 - 1)
post Nov 14 2017, 06:43:28
Post #2

...
Group Icon
Group: S-moderation team
Posts: 7,764
Releases: 1299
On Forums: 7 years 9 months
Thanks: 37248 time(s)
Croatia


Register


Thanks:
Go to the top of the page
  Insert nick Quick quote
+Quote Post

Reply to this topicStart new topic
1 User(s) are reading this topic (1 Guests and 0 Anonymous Users)
0 Members:

 



- Lo-Fi Version Support form
Copyrights and abuse reports form
Time is now: 14th December 2018 - 21:26:10