Welcome Guest ( Log In | Register )

> Maquahuitl - Panquetzaliztli [ep] (2015), Black Metal
post May 31 2017, 18:15:45
Post #1

Thrash, Beer & Violence
**************
Group: Металариец
Posts: 5,503
Releases: 2772
From: Крестов Брод (Russland)
On Forums: 11 years 7 months
Thanks: 39942 time(s)
Russian Federation


(IMG:http://metalarea.org/images/audiocovers/2017_May/acov_tid289614_thumb.jpg)

*Artist: Maquahuitl
*Album: Panquetzaliztli [ep]
*Year: 2015
*Genre: Black Metal
*Country: United States (IMG:http://metalarea.org/forum/style_images/flags/United%20States.png)
*Format: mp3@CBR320kbps
*Size: 27MB

Tracklist:
1. La Resistencia Para La Existencia 02:57
2. El Muerte Mas Preciosa 03:33
3. Panquetzaliztli 02:36
4. Paraiso Azul 02:59
******************************
Total playing time: 12:05


Metal-Archives

Extended info
Cassette, EP, Limited Edition (50), Self-released



Technical info
(IMG:http://metalarea.org/images/spectrogram/2017_May/21a180cc90cb3dcf4a1c1c3d5632b5cb.png)
Input File: Maquahuitl - 01 - La Resistencia Para La Existencia.mp3
Channels : 2
Sample Rate : 48000
Precision : 16-bit
Duration : 00:02:57.74 = 8531712 samples ~ 13330.8 CDDA sectors
File Size : 6.90M
Bit Rate : 311k
Sample Encoding: MPEG audio (layer I, II or III)
Comments :
Title=La Resistencia Para La Existencia
Artist=Maquahuitl
Album=Panquetzaliztli [EP]
Tracknumber=1
Year=2015
Genre=Black Metal



Register


Go to the top of the page
  Insert nick Quick quote
+Quote Post
 
Start new topic
Replies (1 - 1)
post Dec 17 2018, 18:52:33
Post #2

Ich bin die Trauer menschlich, kommen Sie zu mir und ich werde Ihnen vergelten
**************
Group: Металариец
Posts: 4,054
Releases: 692
From: Koenigsberg
On Forums: 11 years 4 months
Thanks: 10291 time(s)
Russian Federation


Register



Go to the top of the page
  Insert nick Quick quote
+Quote Post

Reply to this topicStart new topic
1 User(s) are reading this topic (1 Guests and 0 Anonymous Users)
0 Members:

 



- Lo-Fi Version Support form
Copyrights and abuse reports form
Time is now: 22nd May 2019 - 09:42:34