Welcome Guest ( Log In | Register )

 
Reply to this topicStart new topic
> Area - Obsolete Flesh – Part I [demo] (2016), Death Metal (D4)
post May 31 2017, 19:11:07
Post #1

Thrash, Beer & Violence
**************
Group: Металариец
Posts: 5,503
Releases: 2772
From: Крестов Брод (Russland)
On Forums: 12 years 2 months
Thanks: 40175 time(s)
Russian Federation


(IMG:http://metalarea.org/images/audiocovers/2017_May/acov_tid289621_thumb.jpg)

*Artist: Area
*Album: Obsolete Flesh – Part I [demo]
*Year: 2016
*Genre: Death Metal
*Country: Poland (IMG:http://metalarea.org/forum/style_images/flags/Poland.png)
*Format: mp3@CBR320kbps
*Size: 42MB

Tracklist:
1. Human Distortion 03:13
2. Subject 04:17
3. Mechanical Hymn 03:09
4. Radioactive Sun 02:22
5. Awaken / Inhuman Torment 05:09
******************************
Total playing time: 18:10



(IMG:http://metalarea.org/images/youtube.png)

Extended info
На BandCamp можно скачать безвозмездно (flac, 320, v0)


Technical info
(IMG:http://metalarea.org/images/spectrogram/2017_May/6e7d90f3f91c3adbf70d059cf9928de4.png)
Input File: 01 Human Distortion.mp3
Channels : 2
Sample Rate : 44100
Precision : 16-bit
Duration : 00:03:13.85 = 8548609 samples = 14538.5 CDDA sectors
File Size : 7.87M
Bit Rate : 325k
Sample Encoding: MPEG audio (layer I, II or III)
Comments :
Title=Human Distortion
Artist=Area
Album=Obsolete Flesh - Part I
Tracknumber=01
Year=2016
Genre=Black/Death Metal



Register


Thanks:
Go to the top of the page
  Insert nick Quick quote
+Quote Post

Reply to this topicStart new topic
2 User(s) are reading this topic (2 Guests and 0 Anonymous Users)
0 Members:

 



- Lo-Fi Version Support form
Copyrights and abuse reports form
Time is now: 10th December 2019 - 06:59:10