Welcome Guest ( Log In | Register )

> Tankard - One Foot In The Grave (2017), Thrash Metal
post Jun 1 2017, 11:57:50
Post #1

Serial Uploader
Group Icon
Group: V.I.P
Posts: 32,938
Releases: 31231
From: Lithuania
On Forums: 10 years 2 months
Thanks: 357595 time(s)
Lithuania


(IMG:http://metalarea.org/images/audiocovers/2017_Jun/acov_tid289644_thumb.jpg)

*Artist: Tankard
*Album: One Foot In The Grave
*Year: 2017
*Genre: Thrash Metal
*Country: Germany (IMG:http://metalarea.org/forum/style_images/flags/Germany.png)
*Format: mp3@CBR320kbps
*Size: 112MB

Tracklist:
01. Pay To Pray 05:22
02. Arena Of The True Lies 05:08
03. Don't Bullshit Us! 03:56
04. One Foot In The Grave 04:47
05. Syrian Nightmare 04:31
06. Northern Crown (Lament Of The Undead King) 04:22
07. Lock 'Em Up 04:10
08. The Evil That Men Display 03:14
09. Secret Order 1516 07:23
10. Sole Grinder 05:28
******************************
Total playing time: 48:21

(IMG:http://metalarea.org/images/myspace.png)


(IMG:http://metalarea.org/images/youtube.png)

Technical info
(IMG:http://metalarea.org/images/spectrogram/2017_Jun/e61ddf54742d84db2a7abfee0ba5371c.png)
Input File: 02. Arena of the True Lies.mp3
Channels : 2
Sample Rate : 44100
Precision : 16-bit
Duration : 00:05:08.67 = 13612127 samples = 23149.9 CDDA sectors
File Size : 12.5M
Bit Rate : 323k
Sample Encoding: MPEG audio (layer I, II or III)
Comments :
Title=Arena of the True Lies
Artist=Tankard
Album=One Foot in the Grave
Tracknumber=2/10
Year=2017
Genre=Thrash Metal



Register


Go to the top of the page
  Insert nick Quick quote
+Quote Post
4 Pages V  « < 2 3 4  
Start new topic
Replies (90 - 94)
post Aug 7 2017, 11:01:07
Post #91

Маньяк
**********
Group: Металариец
Posts: 1,085
Releases: 0
On Forums: 9 years 8 months
Thanks: 382 time(s)
United Kingdom


хороший альбом выдали пивовары (IMG:style_emoticons/default/9.gif) (IMG:style_emoticons/default/9.gif) (IMG:style_emoticons/default/9.gif) (IMG:style_emoticons/default/9.gif)
Go to the top of the page
  Insert nick Quick quote
+Quote Post
post Aug 23 2017, 16:05:56
Post #92

Кожаный ублюдок
**************
Group: Металариец
Posts: 2,868
Releases: 6
From: Алчевск (early) Некросибирск (now)
On Forums: 9 years 3 months
Thanks: 1611 time(s)
Russian Federation


Немцев Tankard знает, наверное, каждый второй слушатель тяжёлой музыки. Ну конечно тут ещё нужно учитывать фактор возраста и увлечения определёнными стилями, но все же не будем вдаваться в такие подробности. И вот эти самые немцы выпускают свой очередной полноформат. Относится к нему можно как угодно, но не послушать его я не мог. Получилось как обычно драйвово, хоть и не так увлекательно, как было когда-то. Впрочем ничего нового я и не ожидал, а потому альбом вполне способен порадовать, ведь это хороший и крепкий трэш-метал, в самых лучших традициях Германии и данного коллектива в частности. Прекрасный звук, с четкой слышимостью каждого инструмента, неизменно узнаваемым харшем в качестве вокала и ржачными обложками.
В общем материал как обычно прекрасно зайдет под пивко в душевной дружеской компании пузато-волосатых друганов, а большего ведь и не требуется! Даже если и требуется, то не здесь. (IMG:style_emoticons/default/9.gif) (IMG:style_emoticons/default/9.gif) (IMG:style_emoticons/default/9.gif)
Go to the top of the page
  Insert nick Quick quote
+Quote Post
post Oct 28 2017, 06:25:03
Post #93

Два Литра
**
Group: Завсегдатай
Posts: 175
Releases: 0
On Forums: 5 years 6 months
Thanks: 170 time(s)
Chile


Mega 320 Kbps

Register


http://lastropasdelmetal-cl.foroactivo.com/


Thanks:
Go to the top of the page
  Insert nick Quick quote
+Quote Post
post Dec 7 2017, 11:28:56
Post #94

No More Tears
**************
Group: Металариец
Posts: 4,933
Releases: 115
From: Тбилиси, Грузия
On Forums: 12 years 3 weeks
Thanks: 2341 time(s)
Georgia


Это отличный альбом, от начала до конца он очень хорош. Альбом не соверпшенен но он очень силен. Рад наконец, что в наши дни получил такое наслаждение от работы в старом стиле.
Go to the top of the page
  Insert nick Quick quote
+Quote Post
post Dec 17 2017, 23:27:29
Post #95

Два Литра
**
Group: Завсегдатай
Posts: 198
Releases: 0
From: Кирово-Чепецк
On Forums: 3 years 4 months
Thanks: 16 time(s)
Russian Federation


Кто бы ремастеры 2017 от сеньютери выложил
Go to the top of the page
  Insert nick Quick quote
+Quote Post

4 Pages V  « < 2 3 4
Reply to this topicStart new topic
1 User(s) are reading this topic (1 Guests and 0 Anonymous Users)
0 Members:

 



- Lo-Fi Version Support form
Copyrights and abuse reports form
Time is now: 18th August 2018 - 13:41:31