Welcome Guest ( Log In | Register )

> Brainthrash - Brain Rangers (2017), Old School Thrash Metal
post Jun 1 2017, 15:37:28
Post #1

Правь статус, ####!111
**************
Group: Металариец
Posts: 15,334
Releases: 10467
From: Г.Харьков
On Forums: 6 years 7 months
Thanks: 173601 time(s)
Unknown


(IMG:http://metalarea.org/images/audiocovers/2017_Jun/acov_tid289659_thumb.jpg)

*Artist: Brainthrash
*Album: Brain Rangers
*Year: 2017
*Genre: Old School Thrash Metal
*Country: Finland (IMG:http://metalarea.org/forum/style_images/flags/Finland.png)
*Format: mp3@CBR320kbps
*Size: 84MB

Tracklist:
1. Vomit Protector
2. Die Right
3. Major Mayhem
4. Kannibal Clock
5. Big Bitch
6. Thanatomania
7. All the Chambers
8. Mental Kombat
9. Brain Rangers
******************************
Total playing time: 39:47



Extended info


Technical info
(IMG:http://metalarea.org/images/spectrogram/2017_Jun/fd746db005e35aadba0ca5ec50dfe970.png)
Input File: 03 Major Mayhem.mp3
Channels : 2
Sample Rate : 44100
Precision : 16-bit
Duration : 00:03:59.18 = 10547662 samples = 17938.2 CDDA sectors
File Size : 9.67M
Bit Rate : 324k
Sample Encoding: MPEG audio (layer I, II or III)
Comments :
Title=Major Mayhem
Artist=Brainthrash
Album=Brain Rangers
Tracknumber=3/9
Year=2017
Genre=9
Discnumber=1/1



Register


Go to the top of the page
  Insert nick Quick quote
+Quote Post
 
Start new topic
Replies (1 - 6)
post Jun 1 2017, 17:03:44
Post #2

Правь статус, ####!111
**************
Group: Металариец
Posts: 15,334
Releases: 10467
From: Г.Харьков
On Forums: 6 years 7 months
Thanks: 173601 time(s)
Unknown


Register


Go to the top of the page
  Insert nick Quick quote
+Quote Post
post Jun 1 2017, 23:05:50
Post #3

_ - = # Thrashogolic # = - _ ... а давайте поржём все вместе
**************
Group: Металариец
Posts: 21,048
Releases: 4444
From: 404
On Forums: 8 years 5 months
Thanks: 27297 time(s)
Ukraine


Тащемта, HEADBANG (IMG:style_emoticons/default/metaler.gif) , например. (IMG:style_emoticons/default/crazy.gif)


Thanks:
Go to the top of the page
  Insert nick Quick quote
+Quote Post
post Jun 2 2017, 09:54:01
Post #4

Правь статус, ####!111
**************
Group: Металариец
Posts: 5,248
Releases: 0
From: Primorye.ru
On Forums: 7 years 8 months
Thanks: 1048 time(s)
Russian Federation


"Это оно, родное!" ©
Финны сУрьёзный коллективчег (IMG:style_emoticons/default/metaler.gif)
Go to the top of the page
  Insert nick Quick quote
+Quote Post
post Jun 2 2017, 12:33:13
Post #5

\m/
Group Icon
Group: S-moderation team
Posts: 7,568
Releases: 19
From: Петропавловск-Камчатский
On Forums: 9 years 6 months
Thanks: 6911 time(s)
Russian Federation


Go to the top of the page
  Insert nick Quick quote
+Quote Post
post Jun 7 2017, 11:45:50
Post #6

South Of Heaven /адепт ВУДУ
**************
Group: Металариец
Posts: 13,163
Releases: 7
From: Санкт-Петербург
On Forums: 8 years 8 months
Thanks: 4807 time(s)
Russian Federation


Дебютник, группа видимо является истинными верующими поклонниками Exodus.
Go to the top of the page
  Insert nick Quick quote
+Quote Post
post Nov 14 2017, 21:05:55
Post #7

Правь статус, ####!111
**************
Group: Металариец
Posts: 2,092
Releases: 0
On Forums: 3 years 7 months
Thanks: 2034 time(s)
Russian Federation


ЦИТАТА(avkruchinin @ Jun 7 2017, 15:45:50) *
Дебютник, группа видимо является истинными верующими поклонниками Exodus.

Вокал на Сузу похож, даже пришлось глянуть не он ли на вокале (IMG:style_emoticons/default/5.gif) . Альбом шикарен.


Thanks:
Go to the top of the page
  Insert nick Quick quote
+Quote Post

Reply to this topicStart new topic
1 User(s) are reading this topic (1 Guests and 0 Anonymous Users)
0 Members:

 



- Lo-Fi Version Support form
Copyrights and abuse reports form
Time is now: 14th December 2018 - 21:00:43