Welcome Guest ( Log In | Register )

> Brainthrash - Brain Rangers (2017), Old School Thrash Metal
post Jun 1 2017, 15:37:28
Post #1

Правь статус, ####!111
**************
Group: Металариец
Posts: 12,217
Releases: 8822
From: Г.Харьков
On Forums: 5 years 9 months
Thanks: 141271 time(s)
Unknown


(IMG:http://metalarea.org/images/audiocovers/2017_Jun/acov_tid289659_thumb.jpg)

*Artist: Brainthrash
*Album: Brain Rangers
*Year: 2017
*Genre: Old School Thrash Metal
*Country: Finland (IMG:http://metalarea.org/forum/style_images/flags/Finland.png)
*Format: mp3@CBR320kbps
*Size: 84MB

Tracklist:
1. Vomit Protector
2. Die Right
3. Major Mayhem
4. Kannibal Clock
5. Big Bitch
6. Thanatomania
7. All the Chambers
8. Mental Kombat
9. Brain Rangers
******************************
Total playing time: 39:47



Extended info


Technical info
(IMG:http://metalarea.org/images/spectrogram/2017_Jun/fd746db005e35aadba0ca5ec50dfe970.png)
Input File: 03 Major Mayhem.mp3
Channels : 2
Sample Rate : 44100
Precision : 16-bit
Duration : 00:03:59.18 = 10547662 samples = 17938.2 CDDA sectors
File Size : 9.67M
Bit Rate : 324k
Sample Encoding: MPEG audio (layer I, II or III)
Comments :
Title=Major Mayhem
Artist=Brainthrash
Album=Brain Rangers
Tracknumber=3/9
Year=2017
Genre=9
Discnumber=1/1



Register


Вернуться к началу страницы
  Insert nick Quick quote
+Цитировать сообщение
 
Создать новую тему
Replies (1 - 6)
post Jun 1 2017, 17:03:44
Post #2

Правь статус, ####!111
**************
Group: Металариец
Posts: 12,217
Releases: 8822
From: Г.Харьков
On Forums: 5 years 9 months
Thanks: 141271 time(s)
Unknown


Register


Вернуться к началу страницы
  Insert nick Quick quote
+Цитировать сообщение
post Jun 1 2017, 23:05:50
Post #3

_ - = # Thrashogolic # = - _ ... а давайте поржём все вместе
**************
Group: Металариец
Posts: 20,597
Releases: 4444
From: 404
On Forums: 7 years 8 months
Thanks: 26778 time(s)
Ukraine


Тащемта, HEADBANG (IMG:style_emoticons/default/metaler.gif) , например. (IMG:style_emoticons/default/crazy.gif)


Thanks:
Вернуться к началу страницы
  Insert nick Quick quote
+Цитировать сообщение
post Jun 2 2017, 09:54:01
Post #4

Правь статус, ####!111
**************
Group: Металариец
Posts: 5,060
Releases: 0
From: Primorye.ru
On Forums: 6 years 11 months
Thanks: 944 time(s)
Russian Federation


"Это оно, родное!" ©
Финны сУрьёзный коллективчег (IMG:style_emoticons/default/metaler.gif)
Вернуться к началу страницы
  Insert nick Quick quote
+Цитировать сообщение
post Jun 2 2017, 12:33:13
Post #5

\m/
Group Icon
Group: S-moderation team
Posts: 7,340
Releases: 19
From: Петропавловск-Камчатский
On Forums: 8 years 8 months
Thanks: 6493 time(s)
Russian Federation


Вернуться к началу страницы
  Insert nick Quick quote
+Цитировать сообщение
post Jun 7 2017, 11:45:50
Post #6

South Of Heaven /адепт ВУДУ
**************
Group: Металариец
Posts: 11,910
Releases: 7
From: Санкт-Петербург
On Forums: 7 years 10 months
Thanks: 4243 time(s)
Russian Federation


Дебютник, группа видимо является истинными верующими поклонниками Exodus.
Вернуться к началу страницы
  Insert nick Quick quote
+Цитировать сообщение
post Nov 14 2017, 21:05:55
Post #7

Мегаманьяк
***********
Group: Металариец
Posts: 1,854
Releases: 0
On Forums: 2 years 9 months
Thanks: 1529 time(s)
Russian Federation


ЦИТАТА(avkruchinin @ Jun 7 2017, 15:45:50) *
Дебютник, группа видимо является истинными верующими поклонниками Exodus.

Вокал на Сузу похож, даже пришлось глянуть не он ли на вокале (IMG:style_emoticons/default/5.gif) . Альбом шикарен.


Thanks:
Вернуться к началу страницы
  Insert nick Quick quote
+Цитировать сообщение

ОтветитьСоздать новую тему
1 User(s) are reading this topic (1 Guests and 0 Anonymous Users)
0 Members:

 



- Lo-Fi Version Support form
Copyrights and abuse reports form
Time is now: 23rd February 2018 - 03:46:45