Welcome Guest ( Log In | Register )

 
Reply to this topicStart new topic
> Violet Cold - Random Memories Channel [best of/compilation] (2017), Atmospheric Post-Black Metal/Blackgaze/Instrumental (D8)
post Jun 1 2017, 19:35:19
Post #1

Thrash, Beer & Violence
**************
Group: Металариец
Posts: 5,503
Releases: 2772
From: Крестов Брод (Russland)
On Forums: 12 years 2 months
Thanks: 40179 time(s)
Russian Federation


(IMG:http://metalarea.org/images/audiocovers/2017_Jun/acov_tid289681_thumb.jpg)

*Artist: Violet Cold
*Album: Random Memories Channel [best of/compilation]
*Year: 2017
*Genre: Atmospheric Post-Black Metal/Blackgaze/Instrumental
*Country: Azerbaijan (IMG:http://metalarea.org/forum/style_images/flags/Azerbaijan.png)
*Format: mp3@CBR320kbps
*Size: 182MB

Tracklist:
1. Brave New Void 07:52
2. Drowned in the Lights 07:38
3. Endless Journey 04:10
4. She Spoke of Her Devestation 10:10
5. Pour l'éternité 11:34
6. I See the Air You Breathe 05:20
7. Silver Moon (Pt. II) 07:17
8. No Escape from Dreamland 09:00
9. Warm Winter 09:25
10. Everything You Can Imagine Is Real... 07:10
******************************
Total playing time: 1:19:36



Extended info


Technical info
(IMG:http://metalarea.org/images/spectrogram/2017_Jun/76c3c1d684d20852d8c6d0f95fba3f9b.png)
Input File: 03. Endless Journey.mp3
Channels : 2
Sample Rate : 44100
Precision : 16-bit
Duration : 00:04:10.28 = 11037304 samples = 18770.9 CDDA sectors
File Size : 10.0M
Bit Rate : 320k
Sample Encoding: MPEG audio (layer I, II or III)
Comments :
Title=Endless Journey
Artist=Violet Cold
Album=Random Memories Channel (Compilation)
Tracknumber=03
Year=2017
Genre=Instrumental Atmospheric Black / Post-Black / Shoegaze



Register


Go to the top of the page
  Insert nick Quick quote
+Quote Post

Reply to this topicStart new topic
2 User(s) are reading this topic (2 Guests and 0 Anonymous Users)
0 Members:

 



- Lo-Fi Version Support form
Copyrights and abuse reports form
Time is now: 13th December 2019 - 11:50:07