Welcome Guest ( Log In | Register )

> Thunderdome - Nowhere Fast (2017), Heavy Metal
post Jun 2 2017, 17:51:20
Post #1

Thrash, Beer & Violence
**************
Group: Металариец
Posts: 5,503
Releases: 2772
From: Крестов Брод (Russland)
On Forums: 12 years 1 month
Thanks: 40172 time(s)
Russian Federation


(IMG:http://metalarea.org/images/audiocovers/2017_Jun/acov_tid289720_thumb.jpg)

*Artist: Thunderdome
*Album: Nowhere Fast
*Year: 2017
*Genre: Heavy Metal
*Country: Italy (IMG:http://metalarea.org/forum/style_images/flags/Italy.png)
*Format: mp3@CBR320kbps
*Size: 108MB

Tracklist:
01. Billy Bulldozer
02. Superstar
03. Child of Black
04. Demon Hunter
05. Ghost of Our Mistakes
06. Midnight Stalker
07. Hand On My Shoulder
08. Eternal Light
******************************
Total playing time: 46:56




Extended info


Technical info
(IMG:http://metalarea.org/images/spectrogram/2017_Jun/b52a0506777ac6f111190e43f0fa8025.png)
Input File: 01. Billy Bulldozer.mp3
Channels : 2
Sample Rate : 44100
Precision : 16-bit
Duration : 00:04:19.63 = 11449771 samples = 19472.4 CDDA sectors
File Size : 10.5M
Bit Rate : 325k
Sample Encoding: MPEG audio (layer I, II or III)
Comments :
Title=Billy Bulldozer
Artist=Thunderdome
Album=Nowhere Fast
Tracknumber=01
Year=2017
Genre=Heavy Metal
Discnumber=1



Register


Go to the top of the page
  Insert nick Quick quote
+Quote Post
 
Start new topic
Replies (1 - 3)
post Jun 2 2017, 19:08:59
Post #2

Маньяк
**********
Group: Металариец
Posts: 1,258
Releases: 0
From: Russian Federation - St.Petersburg
On Forums: 10 years 9 months
Thanks: 297 time(s)
Russian Federation


В очередной раз кто-то тренируется на наших ушах! (IMG:style_emoticons/default/1488.gif)
Go to the top of the page
  Insert nick Quick quote
+Quote Post
post Jun 2 2017, 23:05:37
Post #3

Наливай!
**************
Group: Металариец
Posts: 5,480
Releases: 27
From: Москва-Бибирево
On Forums: 11 years 8 months
Thanks: 2670 time(s)
Russian Federation


ЦИТАТА(Olrak @ Jun 2 2017, 22:08:59) *
В очередной раз кто-то тренируется на наших ушах! (IMG:style_emoticons/default/1488.gif)


Судя по обложке, ещё и на глазах (IMG:style_emoticons/default/crazy.gif)
Go to the top of the page
  Insert nick Quick quote
+Quote Post
post Jun 3 2017, 07:34:09
Post #4

hearer & reader
**************
Group: Металариец
Posts: 8,233
Releases: 111
From: Moscow
On Forums: 12 years 2 months
Thanks: 7757 time(s)
Russian Federation


ЦИТАТА
Heavy Metal band from Sardinia

И лейбл итальянский. (IMG:style_emoticons/default/smile3.gif)
Go to the top of the page
  Insert nick Quick quote
+Quote Post

Reply to this topicStart new topic
2 User(s) are reading this topic (2 Guests and 0 Anonymous Users)
0 Members:

 



- Lo-Fi Version Support form
Copyrights and abuse reports form
Time is now: 7th December 2019 - 11:37:24