Welcome Guest ( Log In | Register )

> Sacrifice The Sun - When It Rains, It Pours [ep] (2017), Metalcore
post Jun 3 2017, 08:26:52
Post #1

Thrash, Beer & Violence
**************
Group: Металариец
Posts: 5,503
Releases: 2772
From: Крестов Брод (Russland)
On Forums: 12 years 2 months
Thanks: 40179 time(s)
Russian Federation


(IMG:http://metalarea.org/images/audiocovers/2017_Jun/acov_tid289738_thumb.jpg)

*Artist: Sacrifice The Sun
*Album: When It Rains, It Pours [ep]
*Year: 2017
*Genre: Metalcore
*Country: United States (IMG:http://metalarea.org/forum/style_images/flags/United%20States.png)
*Format: mp3@CBR320kbps
*Size: 62MB

Tracklist:
01. Project X 00:53
02. Fool Me Once 04:22
03. Carnival Games 04:11
04. Wildfire 04:32)
05. When It Rains 03:29
06. It Pours 04:37
07. Sunrise,Sunset 04:33
******************************
Total playing time: 26:37



Extended info



Technical info
(IMG:http://metalarea.org/images/spectrogram/2017_Jun/789dc56c842b67d582d2b468dd2b46c7.png)
Input File: 01. Project X.mp3
Channels : 2
Sample Rate : 44100
Precision : 16-bit
Duration : 00:00:53.48 = 2358468 samples = 4011 CDDA sectors
File Size : 2.34M
Bit Rate : 351k
Sample Encoding: MPEG audio (layer I, II or III)
Comments :
Title=Project X
Artist=Sacrifice the Sun
Album=When It Rains, It Pours
Tracknumber=1/7
Year=2017
Genre=9



Register


Thanks:
(2) Rosen, varlam4,
Go to the top of the page
  Insert nick Quick quote
+Quote Post
 
Start new topic
Replies (1 - 1)
post Jun 15 2017, 20:55:34
Post #2

Три Литра
***
Group: Завсегдатай
Posts: 284
Releases: 0
From: Москва
On Forums: 11 years 3 months
Thanks: 46 time(s)
Russian Federation


Начал слушать, думаю вроде бы и ничего, можно покрутить и тут на бл*..Владимир Пресняков запел и все, прослушивание закончилось
Go to the top of the page
  Insert nick Quick quote
+Quote Post

Reply to this topicStart new topic
2 User(s) are reading this topic (2 Guests and 0 Anonymous Users)
0 Members:

 



- Lo-Fi Version Support form
Copyrights and abuse reports form
Time is now: 14th December 2019 - 20:24:43