Welcome Guest ( Log In | Register )

> И неформату есть предел.

Рэп/хип-хоп/шансон/поп удаляются. Для них есть свои порталы.

> Roger Waters - Is This The Life We Really Want (2017), Progressive Rock
post Jun 3 2017, 22:15:41
Post #1

Маньяк
**********
Group: Металариец
Posts: 1,215
Releases: 99
From: 56°24′00″ с. ш. 61°56′00″ в. д.
On Forums: 11 years 4 months
Thanks: 2108 time(s)
Russian Federation


(IMG:https://metalarea.org/images/audiocovers/2017_Jun/acov_tid289772_thumb.jpg)

*Artist: Roger Waters
*Album: Is This The Life We Really Want
*Year: 2017
*Genre: Progressive Rock
*Country: United Kingdom (IMG:https://metalarea.org/forum/style_images/flags/United%20Kingdom.png)
*Format: mp3@CBR320kbps
*Size: 124MB

Tracklist:
1.When We Were Young 1:40
2.Déjà Vu 4:28
3.The Last Refugee 4:13
4.Picture That 6:48
5.Broken Bones 4:58
6.Is This the Life We Really Want? 5:55
7.Bird in a Gale 5:31
8.The Most Beautiful Girl 6:09
9.Smell the Roses 5:16
10.Wait for Her 4:56
11.Oceans Apart 1:08
12.Part of Me Died 3:15
******************************
Total playing time: 54:17

Extended info


Technical info
(IMG:https://metalarea.org/images/spectrogram/2017_Jun/0a8b58771f2dd21bc8a8785168a234a4.png)
Input File: 09-Roger Waters-Smell the Roses.mp3
Channels : 2
Sample Rate : 44100
Precision : 16-bit
Duration : 00:05:16.06 = 13938158 samples = 23704.4 CDDA sectors
File Size : 12.6M
Bit Rate : 320k
Sample Encoding: MPEG audio (layer I, II or III)
Comments :
Title=Smell the Roses
Artist=Roger Waters
Album=Is This the Life We Really Want?
Tracknumber=9
Year=2017
Genre=Progressive Rock



Register


Вернуться к началу страницы
  Insert nick Quick quote
+Цитировать сообщение
3 Pages V  < 1 2 3  
Создать новую тему
Replies (60 - 60)
post Apr 16 2018, 15:46:22
Post #61

Мегаманьяк
***********
Group: Металариец
Posts: 1,927
Releases: 1
From: Yaroslavl
On Forums: 1 year 7 months
Thanks: 962 time(s)
Northern Mariana Islands


QUOTE
Один из лидеров известной британской рок-группы Pink Floyd Роджер Уотерс назвал НПО «Белые каски» «организацией фейков», негласно поддержав позицию России по спланированной провокации в Сирии.

Уотерс сделал заявление на концерте в Испании в пятницу, за день до массированного удара США, Великобритании и Франции по Сирии, сообщает ТАСС со ссылкой на Haaretz.

«Уверен, что «Белые каски» являются организацией фейков, производящей пропаганду для джихадистов и террористов. Пропаганда «Белых касок» склоняет нас к тому, чтобы мы начали убеждать наши правительства сбрасывать бомбы на людей в Сирии», – заявил экс-вокалист и гитарист Pink Floyd.

Британский музыкант, по сути, поддержал заявления руководства России по поводу «химатаки» в Думе. Глава МИД Сергей Лавров ранее говорил, что у России есть неопровержимые данные, согласно которым предполагаемая химическая атака 7 апреля в сирийской Думе была постановкой с участием иностранных спецслужб. В Генштабе сообщали, что организация «Белые каски» разыграла перед камерами химическую атаку на мирных жителей в сирийской Думе.


Thanks:
Вернуться к началу страницы
  Insert nick Quick quote
+Цитировать сообщение

3 Pages V  < 1 2 3
ОтветитьСоздать новую тему
2 User(s) are reading this topic (2 Guests and 0 Anonymous Users)
0 Members:

 



- Lo-Fi Version Support form
Copyrights and abuse reports form
Time is now: 21st April 2018 - 10:27:33