Welcome Guest ( Log In | Register )

> Necrophor - Reborn (2017), Death/Black Metal
post Jun 8 2017, 04:59:28
Post #1

Аннигилятор пивА
Group Icon
Group: V.I.P
Posts: 48,890
Releases: 14967
From: Koenigsberg - TILZIT
On Forums: 12 years 3 months
Thanks: 327717 time(s)
Russian Federation


(IMG:https://metalarea.org/images/audiocovers/2017_Jun/acov_tid289919_thumb.jpg)

*Artist: Necrophor
*Album: Reborn
*Year: 2017
*Genre: Death/Black Metal
*Country: Sweden (IMG:https://metalarea.org/forum/style_images/flags/Sweden.png)
*Format: mp3@CBR320kbps
*Size: 108MB

Tracklist:
1. Chaos Undivided
2. Where Dreams Come To Die
3. God Of War
4. Betrayed
5. Ascension
6. Anguish
7. Legion
8. Pain
9. Blood Sacrifice
******************************
Total playing time: 46:11




Extended info
Henrik Eriksson - Vocals (ex-Stormrider)
Mikael Strandberg - Drums (ex-Stormrider)
Henrik Larsén - Guitars (ex-Stormrider)
Björn Sundling - Bass (ex-Stormrider)


Technical info
(IMG:https://metalarea.org/images/spectrogram/2017_Jun/69fe0a38eb560a4d7b3c5afa64619441.png)
Input File: 03. God of War.mp3
Channels : 2
Sample Rate : 44100
Precision : 16-bit
Duration : 00:04:21.66 = 11539162 samples = 19624.4 CDDA sectors
File Size : 10.5M
Bit Rate : 320k
Sample Encoding: MPEG audio (layer I, II or III)
Comments :
Title=God of War
Artist=Necrophor
Album=Reborn
Tracknumber=3
Year=2017



Register


Go to the top of the page
  Insert nick Quick quote
+Quote Post
 
Start new topic
Replies (1 - 4)
post Jun 8 2017, 12:24:35
Post #2

Аннигилятор пивА
Group Icon
Group: V.I.P
Posts: 48,890
Releases: 14967
From: Koenigsberg - TILZIT
On Forums: 12 years 3 months
Thanks: 327717 time(s)
Russian Federation


mirror
Register




Go to the top of the page
  Insert nick Quick quote
+Quote Post
post Jun 8 2017, 21:47:22
Post #3

Победитель судьбы
**************
Group: Металариец
Posts: 5,083
Releases: 0
From: Страны Мамонтов
On Forums: 11 years 7 months
Thanks: 1741 time(s)
Antarctica


For the Emperor! (IMG:style_emoticons/default/pray.gif)
Go to the top of the page
  Insert nick Quick quote
+Quote Post
post Aug 7 2017, 06:34:17
Post #4

i listen to black metal
**************
Group: Металариец
Posts: 2,195
Releases: 128
From: Москва-Лианозово
On Forums: 11 years 9 months
Thanks: 2011 time(s)
Russian Federation


шикарно!!!
Go to the top of the page
  Insert nick Quick quote
+Quote Post
post Dec 7 2017, 08:45:29
Post #5

Аннигилятор пивА
Group Icon
Group: V.I.P
Posts: 48,890
Releases: 14967
From: Koenigsberg - TILZIT
On Forums: 12 years 3 months
Thanks: 327717 time(s)
Russian Federation


Добавлю карелию
Register
Go to the top of the page
  Insert nick Quick quote
+Quote Post

Reply to this topicStart new topic
1 User(s) are reading this topic (1 Guests and 0 Anonymous Users)
0 Members:

 



- Lo-Fi Version Support form
Copyrights and abuse reports form
Time is now: 23rd September 2018 - 12:00:40