Welcome Guest ( Log In | Register )

> Necrophor - Reborn (2017), Death/Black Metal
post Jun 8 2017, 04:59:28
Post #1

Аннигилятор пивА
Group Icon
Group: V.I.P
Posts: 45,794
Releases: 13674
From: Koenigsberg - TILZIT
On Forums: 11 years 8 months
Thanks: 302557 time(s)
Russian Federation


(IMG:https://metalarea.org/images/audiocovers/2017_Jun/acov_tid289919_thumb.jpg)

*Artist: Necrophor
*Album: Reborn
*Year: 2017
*Genre: Death/Black Metal
*Country: Sweden (IMG:https://metalarea.org/forum/style_images/flags/Sweden.png)
*Format: mp3@CBR320kbps
*Size: 108MB

Tracklist:
1. Chaos Undivided
2. Where Dreams Come To Die
3. God Of War
4. Betrayed
5. Ascension
6. Anguish
7. Legion
8. Pain
9. Blood Sacrifice
******************************
Total playing time: 46:11




Extended info
Henrik Eriksson - Vocals (ex-Stormrider)
Mikael Strandberg - Drums (ex-Stormrider)
Henrik Larsén - Guitars (ex-Stormrider)
Björn Sundling - Bass (ex-Stormrider)


Technical info
(IMG:https://metalarea.org/images/spectrogram/2017_Jun/69fe0a38eb560a4d7b3c5afa64619441.png)
Input File: 03. God of War.mp3
Channels : 2
Sample Rate : 44100
Precision : 16-bit
Duration : 00:04:21.66 = 11539162 samples = 19624.4 CDDA sectors
File Size : 10.5M
Bit Rate : 320k
Sample Encoding: MPEG audio (layer I, II or III)
Comments :
Title=God of War
Artist=Necrophor
Album=Reborn
Tracknumber=3
Year=2017



Register


Вернуться к началу страницы
  Insert nick Quick quote
+Цитировать сообщение
 
Создать новую тему
Replies (1 - 4)
post Jun 8 2017, 12:24:35
Post #2

Аннигилятор пивА
Group Icon
Group: V.I.P
Posts: 45,794
Releases: 13674
From: Koenigsberg - TILZIT
On Forums: 11 years 8 months
Thanks: 302557 time(s)
Russian Federation


mirror
Register




Вернуться к началу страницы
  Insert nick Quick quote
+Цитировать сообщение
post Jun 8 2017, 21:47:22
Post #3

Победитель судьбы
**************
Group: Металариец
Posts: 4,847
Releases: 0
From: Страны Мамонтов
On Forums: 11 years 5 days
Thanks: 1624 time(s)
Antarctica


For the Emperor! (IMG:style_emoticons/default/pray.gif)
Вернуться к началу страницы
  Insert nick Quick quote
+Цитировать сообщение
post Aug 7 2017, 06:34:17
Post #4

i listen to black metal
**************
Group: Металариец
Posts: 2,119
Releases: 128
From: Москва-Лианозово
On Forums: 11 years 2 months
Thanks: 1969 time(s)
Russian Federation


шикарно!!!
Вернуться к началу страницы
  Insert nick Quick quote
+Цитировать сообщение
post Dec 7 2017, 08:45:29
Post #5

Аннигилятор пивА
Group Icon
Group: V.I.P
Posts: 45,794
Releases: 13674
From: Koenigsberg - TILZIT
On Forums: 11 years 8 months
Thanks: 302557 time(s)
Russian Federation


Добавлю карелию
Register
Вернуться к началу страницы
  Insert nick Quick quote
+Цитировать сообщение

ОтветитьСоздать новую тему
1 User(s) are reading this topic (1 Guests and 0 Anonymous Users)
0 Members:

 



- Lo-Fi Version Support form
Copyrights and abuse reports form
Time is now: 24th February 2018 - 16:55:34