Welcome Guest ( Log In | Register )

> Gods Forsaken - In A Pitch Black Grave (2017), Death Metal
post Jun 8 2017, 16:19:14
Post #1

Serial Uploader
Group Icon
Group: V.I.P
Posts: 36,458
Releases: 34648
From: Lithuania
On Forums: 11 years 5 months
Thanks: 404509 time(s)
Lithuania


(IMG:http://metalarea.org/images/audiocovers/2017_Jun/acov_tid289945_thumb.jpg)

*Artist: Gods Forsaken
*Album: In A Pitch Black Grave
*Year: 2017
*Genre: Death Metal
*Country: Sweden (IMG:http://metalarea.org/forum/style_images/flags/Sweden.png)
*Format: mp3@CBR320kbps
*Size: 101MB

Tracklist:
01. In A Pitch Black Grave
02. By Hate He Comes
03. Born Of Blasphemy
04. Ashes Of The Dead
05. Black Winds Of Genocide
06. Curse Of The Serpent
07. Souls Torn Apart
08. An Odyssey Of Broken Bones
09. Chronicles Of A Maniac
******************************
Total playing time: 41:48

Technical info
(IMG:http://metalarea.org/images/spectrogram/2017_Jun/139ac0a831f354111018aec6865f0176.png)
Input File: 02. By Hate He Comes.mp3
Channels : 2
Sample Rate : 44100
Precision : 16-bit
Duration : 00:04:10.59 = 11051151 samples = 18794.5 CDDA sectors
File Size : 10.1M
Bit Rate : 324k
Sample Encoding: MPEG audio (layer I, II or III)
Comments :
Title=By Hate He Comes
Artist=Gods Forsaken
Album=In a Pitch Black Grave
Tracknumber=2/9
Year=2017
Genre=9
Discnumber=1/1



Register


Go to the top of the page
  Insert nick Quick quote
+Quote Post
 
Start new topic
Replies (1 - 7)
post Jun 8 2017, 17:54:58
Post #2

Аннигилятор пивА
Group Icon
Group: V.I.P
Posts: 52,358
Releases: 16555
From: Koenigsberg - TILZIT
On Forums: 13 years 5 months
Thanks: 362973 time(s)
Russian Federation


89mb/320
Register


Go to the top of the page
  Insert nick Quick quote
+Quote Post
post Jun 8 2017, 19:05:40
Post #3

Thrash, Beer & Violence
**************
Group: Металариец
Posts: 5,503
Releases: 2772
From: Крестов Брод (Russland)
On Forums: 12 years 1 month
Thanks: 40153 time(s)
Russian Federation


Вполне годная шведятинка...



Thanks:
Go to the top of the page
  Insert nick Quick quote
+Quote Post
post Jun 8 2017, 20:12:18
Post #4

Crush The Enemies
**************
Group: Металариец
Posts: 4,254
Releases: 0
From: Moscow
On Forums: 10 years 2 months
Thanks: 2477 time(s)
Russian Federation



Ничего нового - но для истинного ШВЕДОДЭТСТЕРА прям бальзам!!! (IMG:style_emoticons/default/metaler.gif) (IMG:style_emoticons/default/metaler.gif) (IMG:style_emoticons/default/metaler.gif)


P.S. Вот,что нарыл про сей достойный коллектив: оказывается,пи@дато-звёздный состав:

From the members of Just before Dawn comes death metal legion Gods Forsaken. Driven by the urge to play filthy old school Swedish death metal with no frills, the trio set out to record an album that takes the best parts of the late 80s, early 90s metal scene. The songs attracted record label Soulseller Records, who will release their full length debut “In a pitch black Grave” during 2017. Expect an arsenal of raw, buzzsaw driven death metal from members of bands like Blood Mortized, The Grotesquery and Wombbath.


Go to the top of the page
  Insert nick Quick quote
+Quote Post
post Jun 9 2017, 07:12:05
Post #5

hearer & reader
**************
Group: Металариец
Posts: 8,190
Releases: 108
From: Moscow
On Forums: 12 years 2 months
Thanks: 7689 time(s)
Russian Federation


Go to the top of the page
  Insert nick Quick quote
+Quote Post
post Jun 9 2017, 23:04:53
Post #6

Маньяк
**********
Group: Металариец
Posts: 1,231
Releases: 44
From: Moscow
On Forums: 13 years 4 months
Thanks: 1033 time(s)
Russian Federation


Я уж думал супер-финны возродились, ан нет..
Go to the top of the page
  Insert nick Quick quote
+Quote Post
post Jun 9 2017, 23:18:24
Post #7

Ледоруб
**************
Group: Металариец
Posts: 23,332
Releases: 0
From: Санкт-Петербург
On Forums: 10 years 2 months
Thanks: 7806 time(s)
Russian Federation


Превью убедительно, забираю.
Go to the top of the page
  Insert nick Quick quote
+Quote Post
post Jan 4 2018, 22:59:27
Post #8

Ледоруб
**************
Group: Металариец
Posts: 23,332
Releases: 0
From: Санкт-Петербург
On Forums: 10 years 2 months
Thanks: 7806 time(s)
Russian Federation


Учитывая, что я едва вспомнил, что это такое и как оно оказалось у меня на компе, то, видимо, мне не понравилось.
Go to the top of the page
  Insert nick Quick quote
+Quote Post

Reply to this topicStart new topic
2 User(s) are reading this topic (2 Guests and 0 Anonymous Users)
0 Members:

 



- Lo-Fi Version Support form
Copyrights and abuse reports form
Time is now: 15th November 2019 - 11:40:16