Welcome Guest ( Log In | Register )

> Indian Nightmare - Taking Back The Land (2016), Heavy/Speed Metal/Punk
post Jun 9 2017, 17:40:48
Post #1

Правь статус, ####!111
**************
Group: Металариец
Posts: 20,717
Releases: 14141
From: Г.Харьков
On Forums: 7 years 9 months
Thanks: 249934 time(s)
Unknown


(IMG:http://metalarea.org/images/audiocovers/2017_Jun/acov_tid290012_thumb.Jpg)

*Artist: Indian Nightmare
*Album: Taking Back The Land
*Year: 2016
*Genre: Heavy/Speed Metal/Punk
*Country: Germany (IMG:http://metalarea.org/forum/style_images/flags/Germany.png)
*Format: mp3@CBR320kbps
*Size: 80MB

Tracklist:
1. Intro (Battle) 0:59
2. Mengapa 2:38
3. Unexpected Decay 2:18
4. Circles Of Fire 3:20
5. Fire Meets Steel 5:19
6. Welcome To The World (To The Gate Of Hell) 2:13
7. Riders Of Doom 3:48
8. Warlords 5:20
9. War-Metal-Punx 2:31
10. Betrayers 6:59
******************************
Total playing time: 35:25




Extended info


Technical info
(IMG:http://metalarea.org/images/spectrogram/2017_Jun/4b1af356cad8d61b34bf0c239e246a36.png)
Input File: 04 - Circles of Fire.mp3
Channels : 2
Sample Rate : 44100
Precision : 16-bit
Duration : 00:03:20.03 = 8821455 samples = 15002.5 CDDA sectors
File Size : 8.00M
Bit Rate : 320k
Sample Encoding: MPEG audio (layer I, II or III)
Comments :
Title=Circles of Fire
Artist=Indian Nightmare
Album=Taking Back The Land
Tracknumber=4
Year=2017
Genre=Heavy Metal



Register


Go to the top of the page
  Insert nick Quick quote
+Quote Post
 
Start new topic
Replies (1 - 3)
post Jun 9 2017, 18:55:17
Post #2

Правь статус, ####!111
**************
Group: Металариец
Posts: 3,055
Releases: 0
From: Москва
On Forums: 12 years 3 weeks
Thanks: 453 time(s)
Russian Federation


Очень стоящий материал .


Thanks:
Go to the top of the page
  Insert nick Quick quote
+Quote Post
post Jun 10 2017, 00:04:34
Post #3

Это просто место… где все подошло к концу.
**************
Group: Металариец
Posts: 5,727
Releases: 0
From: Страны Мамонтов
On Forums: 13 years 1 week
Thanks: 2095 time(s)
Antarctica


Панка сильно много??? (IMG:style_emoticons/default/fear.gif)
Go to the top of the page
  Insert nick Quick quote
+Quote Post
post Jun 11 2017, 08:08:15
Post #4

Маньяк
**********
Group: Металариец
Posts: 1,366
Releases: 5
From: Нью-Васюки
On Forums: 13 years 9 months
Thanks: 395 time(s)
Russian Federation


ЦИТАТА(avather @ Jun 10 2017, 02:04:34) *
Панка сильно много??? (IMG:style_emoticons/default/fear.gif)

панка много не бывает


Thanks:
Go to the top of the page
  Insert nick Quick quote
+Quote Post

Reply to this topicStart new topic
2 User(s) are reading this topic (2 Guests and 0 Anonymous Users)
0 Members:

 



- Lo-Fi Version Support form
Copyrights and abuse reports form
Time is now: 28th February 2020 - 06:57:55