Welcome Guest ( Log In | Register )

> Igorrr - Savage Sinusoid (2017), Experimental/Avant-Garde Metal
post Jun 13 2017, 04:48:50
Post #1

Аннигилятор пивА
Group Icon
Group: V.I.P
Posts: 52,360
Releases: 16551
From: Koenigsberg - TILZIT
On Forums: 13 years 8 months
Thanks: 364219 time(s)
Russian Federation


(IMG:http://metalarea.org/images/audiocovers/2017_Jun/acov_tid290186_thumb.jpg)

*Artist: Igorrr
*Album: Savage Sinusoid
*Year: 2017
*Genre: Experimental/Avant-Garde Metal
*Country: France (IMG:http://metalarea.org/forum/style_images/flags/France.png)
*Format: mp3@CBR320kbps
*Size: 92MB

Tracklist:
01. Viande
02. ieuD
03. Houmous
04. Opus Brain
05. Problème d'émotion
06. Spaghetti Forever
07. Cheval
08. Apopathodiaphulatophobie
09. Va te foutre
10. Robert
11. Au Revoir
******************************
Total playing time: 39:26




Extended info
Metal Blade Records
Serre reunited guests being Cattle Decapitation‘s Travis Ryan with vocalists Laurent Lunoir (Öxxö Xööx) and Laure Le Prunenec (Öxxö Xööx), along with drummer Sylvain Bouvier (Trepalium), and collaborated with more musicians...
On this record, electronic manipulations, accordion, saxophone, sitar, harpsichord, mandolin and strings sit comfortably alongside ruthless blastbeats, chunky riffs, death grunts and soaring operatic vocals – and as chaotic as this might sometimes seem, there is no lack of heart behind everything thundering from the speakers.





Technical info
(IMG:http://metalarea.org/images/spectrogram/2017_Jun/c00b4fdf0ca0116a7a13cf56251c4627.png)
Input File: 02 Igorrr - Ieud.mp3
Channels : 2
Sample Rate : 44100
Precision : 16-bit
Duration : 00:03:55.41 = 10381625 samples = 17655.8 CDDA sectors
File Size : 9.42M
Bit Rate : 320k
Sample Encoding: MPEG audio (layer I, II or III)
Comments :
Title=Ieud
Artist=Igorrr
Album=Savage Sinusoid
Tracknumber=2/11
Year=2017



Register


Go to the top of the page
  Insert nick Quick quote
+Quote Post
3 Pages V  < 1 2 3  
Start new topic
Replies (60 - 61)
post Oct 23 2019, 20:27:52
Post #61

Правь статус, ####!111
**************
Group: Металариец
Posts: 45,123
Releases: 695
On Forums: 10 years 8 months
Thanks: 36848 time(s)
Russian Federation


(IMG:https://a.radikal.ru/a40/1910/50/5256f6305a60.jpg)

ЦИТАТА
NEW ALBUM ANNOUNCEMENT :

Igorrr - Spirituality and Distortion (2020)
Metal Blade Records

This album has been a real hell to create and produce, I’m more than happy to be soon able to share it with you.
This is for now, at least the cover, made by Førtifem.
This album is the result of a really intensive work that has been made on a long time period to deliver the most honest and non-compromising music possible, I hope you will enjoy the music as much as I do now when I’m listening to this album.

More info will be given soon, and in a couple of weeks, I think we gonna upload a first track smile.gif

Gautie
Go to the top of the page
  Insert nick Quick quote
+Quote Post
post Jan 14 2020, 18:54:19
Post #62

Правь статус, ####!111
**************
Group: Металариец
Posts: 45,123
Releases: 695
On Forums: 10 years 8 months
Thanks: 36848 time(s)
Russian Federation


Go to the top of the page
  Insert nick Quick quote
+Quote Post

3 Pages V  < 1 2 3
Reply to this topicStart new topic
1 User(s) are reading this topic (1 Guests and 0 Anonymous Users)
0 Members:

 



- Lo-Fi Version Support form
Copyrights and abuse reports form
Time is now: 25th February 2020 - 00:39:35