Welcome Guest ( Log In | Register )

> Elegy Of Madness - New Era (2017), Progressive/Gothic Metal
post Jun 15 2017, 14:10:46
Post #1

Serial Uploader
Group Icon
Group: V.I.P
Posts: 32,532
Releases: 30830
From: Lithuania
On Forums: 9 years 11 months
Thanks: 354031 time(s)
Lithuania


(IMG:http://metalarea.org/images/audiocovers/2017_Jun/acov_tid290270_thumb.jpg)

*Artist: Elegy Of Madness
*Album: New Era
*Year: 2017
*Genre: Progressive/Gothic Metal
*Country: Italy (IMG:http://metalarea.org/forum/style_images/flags/Italy.png)
*Format: mp3@CBR320kbps
*Size: 123MB

Tracklist:
01. Apokalypsis 05:07
02. Answer 03:54
03. Fairytale 05:39
04. Lunacy 04:51
05. New Era 03:35
06. Divine Obsession 04:37
07. Memories River 04:27
08. Endless 04:06
09. Illuminated 03:56
10. Nobody Cares 05:15
11. Reset 04:43
12. Day Zero 03:22
******************************
Total playing time: 53:32

(IMG:http://metalarea.org/images/myspace.png)


Technical info
(IMG:http://metalarea.org/images/spectrogram/2017_Jun/69c839b9e52a7e4b3c6cacb58aba60de.png)
Input File: 02. Answer.mp3
Channels : 2
Sample Rate : 44100
Precision : 16-bit
Duration : 00:03:54.77 = 10353533 samples = 17608 CDDA sectors
File Size : 9.49M
Bit Rate : 323k
Sample Encoding: MPEG audio (layer I, II or III)
Comments :
Title=Answer
Artist=Elegy Of Madness
Album=New Era
Tracknumber=2/12
Year=2017



Register


Вернуться к началу страницы
  Insert nick Quick quote
+Цитировать сообщение
 
Создать новую тему
Replies (1 - 3)
post Jun 16 2017, 07:53:56
Post #2

hearer & reader
**************
Group: Металариец
Posts: 6,233
Releases: 81
From: Moscow
On Forums: 10 years 8 months
Thanks: 6371 time(s)
Russian Federation



По-прежнему на уровне плинтуса.


Thanks:
(1) DenisKov,
Вернуться к началу страницы
  Insert nick Quick quote
+Цитировать сообщение
post Jun 17 2017, 09:02:36
Post #3

Ъ
**************
Group: Металариец
Posts: 9,040
Releases: 9
On Forums: 9 years 4 months
Thanks: 1689 time(s)
Sweden


Мдеее, какой (IMG:style_emoticons/default/22.gif) вокал.
Вернуться к началу страницы
  Insert nick Quick quote
+Цитировать сообщение
post Jan 13 2018, 10:04:54
Post #4

Going home. Flying high.
**************
Group: Металариец
Posts: 12,132
Releases: 0
From: The Land of Shadows
On Forums: 11 years 9 months
Thanks: 16628 time(s)
Russian Federation


from web
Register


Thanks:
Вернуться к началу страницы
  Insert nick Quick quote
+Цитировать сообщение

ОтветитьСоздать новую тему
1 User(s) are reading this topic (1 Guests and 0 Anonymous Users)
0 Members:

 



- Lo-Fi Version Support form
Copyrights and abuse reports form
Time is now: 26th May 2018 - 14:46:53