Welcome Guest ( Log In | Register )

> Проект-162 - Приди и Возьми [ep] (2016), Heavy Metal/Hard Rock
post Jun 18 2017, 20:34:30
Post #1

Thrash, Beer & Violence
**************
Group: Металариец
Posts: 5,503
Releases: 2772
From: Крестов Брод (Russland)
On Forums: 12 years 1 month
Thanks: 40160 time(s)
Russian Federation


(IMG:http://metalarea.org/images/audiocovers/2017_Jun/acov_tid290412_thumb.jpg)

*Artist: Проект-162
*Album: Приди и Возьми [ep]
*Year: 2016
*Genre: Heavy Metal/Hard Rock
*Country: Unknown (IMG:http://metalarea.org/forum/style_images/flags/Unknown.png)
*Format: mp3@CBR320kbps
*Size: 50MB

Tracklist:
1. Ложь 03:45
2. Дай мне руку 04:02
3. Альтаир 04:24
4. Крысолов 04:36
5. Приди и возьми 05:00
******************************
Total playing time: 21:47

ВКонтакТ

Technical info
(IMG:http://metalarea.org/images/spectrogram/2017_Jun/a9bd5a59bb830def95b5062cd09a9275.png)
Input File: 01. Ложь.mp3
Channels : 2
Sample Rate : 44100
Precision : 16-bit
Duration : 00:03:45.67 = 9952091 samples = 16925.3 CDDA sectors
File Size : 9.03M
Bit Rate : 320k
Sample Encoding: MPEG audio (layer I, II or III)
Comments :
Title=Ëîæü
Artist=Ïðîåêò-162
Album=Ïðèäè è Âîçüìè
Tracknumber=1
Year=2016
Genre=Heavy Metal



Register


Go to the top of the page
  Insert nick Quick quote
+Quote Post
 
Start new topic
Replies (1 - 5)
post Sep 27 2017, 19:49:12
Post #2

Котеги! Нравяцо котеги?
**************
Group: Металариец
Posts: 5,927
Releases: 0
From: Терра Инкогнита
On Forums: 9 years 5 months
Thanks: 2398 time(s)
Russian Federation


В песне Крысолов неожиданно годный рифф. На этом всё хорошее заканчивается
Go to the top of the page
  Insert nick Quick quote
+Quote Post
post Sep 27 2017, 19:50:15
Post #3

Правь статус, ####!111
**************
Group: Металариец
Posts: 44,235
Releases: 680
On Forums: 10 years 5 months
Thanks: 35524 time(s)
Russian Federation


Нахрена ты такое говно слушаешь? Это как Зараг Бал Тарааг или Танк Генцид по нашему.
Go to the top of the page
  Insert nick Quick quote
+Quote Post
post Sep 27 2017, 20:05:27
Post #4

Котеги! Нравяцо котеги?
**************
Group: Металариец
Posts: 5,927
Releases: 0
From: Терра Инкогнита
On Forums: 9 years 5 months
Thanks: 2398 time(s)
Russian Federation


vosmidesijatye, чтобы знать, чё происходит на нашей митол-сцене)
Go to the top of the page
  Insert nick Quick quote
+Quote Post
post Sep 27 2017, 20:08:12
Post #5

Правь статус, ####!111
**************
Group: Металариец
Posts: 44,235
Releases: 680
On Forums: 10 years 5 months
Thanks: 35524 time(s)
Russian Federation


ЦИТАТА(Aresson @ Sep 27 2017, 23:05:27) *
vosmidesijatye, чтобы знать, чё происходит на нашей "митол"-сцене)


Валера же грядет. Все падают ниц.

По сабжу - хватило на 1.5 песни. Эталонный отстой (IMG:style_emoticons/default/22.gif)
Go to the top of the page
  Insert nick Quick quote
+Quote Post
post Sep 28 2017, 07:54:25
Post #6

Котеги! Нравяцо котеги?
**************
Group: Металариец
Posts: 5,927
Releases: 0
From: Терра Инкогнита
On Forums: 9 years 5 months
Thanks: 2398 time(s)
Russian Federation


ЦИТАТА(vosmidesijatye @ 27th September 2017 - 22:08:12) *
Эталонный отстой

твоя неправда, обычный среднестатистический хеви
Go to the top of the page
  Insert nick Quick quote
+Quote Post

Reply to this topicStart new topic
2 User(s) are reading this topic (2 Guests and 0 Anonymous Users)
0 Members:

 



- Lo-Fi Version Support form
Copyrights and abuse reports form
Time is now: 22nd November 2019 - 12:04:38