Welcome Guest ( Log In | Register )

> Изумрудный Город - Встать на Крыло (2016), Folk/Heavy Metal
post Jun 18 2017, 20:45:51
Post #1

Thrash, Beer & Violence
**************
Group: Металариец
Posts: 5,503
Releases: 2772
From: Крестов Брод (Russland)
On Forums: 12 years 1 month
Thanks: 40150 time(s)
Russian Federation


(IMG:http://metalarea.org/images/audiocovers/2017_Jun/acov_tid290413_thumb.jpg)

*Artist: Изумрудный Город
*Album: Встать на Крыло
*Year: 2016
*Genre: Folk/Heavy Metal
*Country: Russian Federation (IMG:http://metalarea.org/forum/style_images/flags/Russian%20Federation.png)
*Format: mp3@CBR320kbps
*Size: 72MB

Tracklist:
1. Не Позволяй Мне Упасть 04:11
2. Сказ про Ивана 03:25
3. 300 03:16
4. Магистраль Дней 04:38
5. Вивальди 02:33
6. В Ожидании 04:50
7. The Boyfriend of Steel 03:30
8. Танец Осенней Листвы 04:27
******************************
Total playing time: 30:50

ВКонтакТ

Extended info


Technical info
(IMG:http://metalarea.org/images/spectrogram/2017_Jun/be55cbebb6fda5d63ee4135f8b914187.png)
Input File: 02. Сказ про Ивана.mp3
Channels : 2
Sample Rate : 44100
Precision : 16-bit
Duration : 00:03:25.98 = 9083630 samples = 15448.4 CDDA sectors
File Size : 8.41M
Bit Rate : 326k
Sample Encoding: MPEG audio (layer I, II or III)
Comments :
Title=Сказ РїСЂРѕ Р?вана
Artist=Р?зумрудный РіРѕСЂРѕРґ
Album=Встать на крыло
Tracknumber=2
Year=2016
Genre=Symphonic Metal / Folk



Register


Go to the top of the page
  Insert nick Quick quote
+Quote Post
 
Start new topic
Replies (1 - 5)
post Jun 20 2017, 07:21:33
Post #2

South Of Heaven /адепт ВУДУ
**************
Group: Металариец
Posts: 13,825
Releases: 9
On Forums: 9 years 7 months
Thanks: 5236 time(s)
Unknown


Дебютник, женский вокал, вполне слушабельно, мне даже местами понравилось по вокалу, ибо неплохой такой тембр.

Д/г
Register
Go to the top of the page
  Insert nick Quick quote
+Quote Post
post Jun 20 2017, 11:42:15
Post #3

И Ван Дамм По Делам Вашим!
**************
Group: Металариец
Posts: 17,860
Releases: 26
On Forums: 11 years 4 months
Thanks: 9640 time(s)
Honduras


Прочитав название , сразу вспомнилось:Не тупится и не гнется,никогда не разобьется.... (IMG:style_emoticons/default/1488.gif)
Go to the top of the page
  Insert nick Quick quote
+Quote Post
post Jun 26 2017, 10:41:49
Post #4

brutalcesar
**************
Group: Металариец
Posts: 17,777
Releases: 67
From: Рязань
On Forums: 10 years 9 months
Thanks: 9362 time(s)
Russian Federation


Хорошо.
Вокал очень правильный, как в "музыкалке".
Но скучно.
Go to the top of the page
  Insert nick Quick quote
+Quote Post
post Jul 22 2017, 12:04:16
Post #5

Перевозчик
**************
Group: Металариец
Posts: 3,056
Releases: 0
On Forums: 11 years 4 months
Thanks: 670 time(s)
Russian Federation


Крайне слабо, к сожалению. Тембр у вокалистки, возможно, и приятный, но поёт она не очень эмоционально (создаётся впечатление, что слишком сильно старается всё сделать "правильно") голосу не хватает мощности и глубины. В музыкальном плане всё ещё хуже: вроде, стараются, однако опять же ничего интересного сыграть коллективу не удаётся. Ну а качество звука как бы подчёркивает всю несерьёзность и любительский уровень затеи.
Go to the top of the page
  Insert nick Quick quote
+Quote Post
post Sep 27 2017, 19:46:12
Post #6

Котеги! Нравяцо котеги?
**************
Group: Металариец
Posts: 5,909
Releases: 0
From: Терра Инкогнита
On Forums: 9 years 5 months
Thanks: 2390 time(s)
Russian Federation


мне вообще никак, ни музыкой, ни вокалом, да дажезапись хуже средней по блольнице
Go to the top of the page
  Insert nick Quick quote
+Quote Post

Reply to this topicStart new topic
2 User(s) are reading this topic (2 Guests and 0 Anonymous Users)
0 Members:

 



- Lo-Fi Version Support form
Copyrights and abuse reports form
Time is now: 13th November 2019 - 11:01:55