Welcome Guest ( Log In | Register )

> Stone Cadaver - Reject Remove Replace (2017), Stoner Metal/Rock
post Jun 18 2017, 21:46:09
Post #1

Thrash, Beer & Violence
**************
Group: Металариец
Posts: 5,503
Releases: 2772
From: Крестов Брод (Russland)
On Forums: 12 years 1 month
Thanks: 40150 time(s)
Russian Federation


(IMG:http://metalarea.org/images/audiocovers/2017_Jun/acov_tid290416_thumb.jpg)

*Artist: Stone Cadaver
*Album: Reject Remove Replace
*Year: 2017
*Genre: Stoner Metal/Rock
*Country: Denmark (IMG:http://metalarea.org/forum/style_images/flags/Denmark.png)
*Format: mp3@CBR320kbps
*Size: 91MB

Tracklist:
1. Sscum
2. We Need Your Fucking Blood
3. Suffer the Scorn
4. Ruins in the Sand
5. Hands of Death
6. Removal of the Eye
7. Dead Horses (Parts 1 & 2)
******************************
Total playing time: 39:27




Extended info
Old school proto-metal guitar and gritty, distorted bass combine with fat, organic drums to concoct an evil gumbo of dirty ‘70s inspired stoner riffs topped off with a few pinches of catchy doom grooves that is bound to fill that empty hole in your stomach.

Picture three guys in denim vests mixing the likes of Pentagram, Black Sabbath, Deep Purple and Electric Wizard in their heavy riffing, and you have pretty good idea of what Stone Cadaver is all about.




Technical info
(IMG:http://metalarea.org/images/spectrogram/2017_Jun/41c7896532509ff228d103d405601777.png)
Input File: 01. Sscum.mp3
Channels : 2
Sample Rate : 44100
Precision : 16-bit
Duration : 00:05:37.53 = 14885073 samples = 25314.7 CDDA sectors
File Size : 13.5M
Bit Rate : 321k
Sample Encoding: MPEG audio (layer I, II or III)
Comments :
Title=Sscum
Artist=Stone Cadaver
Album=Reject Remove Replace
Tracknumber=01
Year=2017
Genre=Stoner Metal



Register


Go to the top of the page
  Insert nick Quick quote
+Quote Post
 
Start new topic
Replies (1 - 1)
post Sep 29 2017, 16:46:42
Post #2

Welder - master Wunderkerzen
***********
Group: Металариец
Posts: 1,541
Releases: 47
On Forums: 11 years 6 months
Thanks: 3410 time(s)
Russian Federation


Оч хорошо!!!
Go to the top of the page
  Insert nick Quick quote
+Quote Post

Reply to this topicStart new topic
2 User(s) are reading this topic (2 Guests and 0 Anonymous Users)
0 Members:

 



- Lo-Fi Version Support form
Copyrights and abuse reports form
Time is now: 12th November 2019 - 08:45:07