Welcome Guest ( Log In | Register )

> Правила / Rules

Тут только для чтения лежат низкобитрейтные (<192kbps) релизы, для которых есть аналоги в высокобитрейтных форумах.

Here goes (and stand in read only mode) low bitrate releases (<192kbps) which were already replaced by high bitrate releases in corresponding forums.

> Meszaroth - Nihil Manifesto [ep] (2017), Black Metal
post Jun 20 2017, 19:05:31
Post #1

Thrash, Beer & Violence
**************
Group: Металариец
Posts: 5,503
Releases: 2772
From: Крестов Брод (Russland)
On Forums: 12 years 1 month
Thanks: 40159 time(s)
Russian Federation


(IMG:http://metalarea.org/images/audiocovers/2017_Jun/acov_tid290485_thumb.jpg)

*Artist: Meszaroth
*Album: Nihil Manifesto [ep]
*Year: 2017
*Genre: Black Metal
*Country: Spain (IMG:http://metalarea.org/forum/style_images/flags/Spain.png)
*Format: mp3@CBR320kbps
*Size: 61MB

Tracklist:
1. Mors Genesis Collapse 06:24
2. Dread 06:53
3. The Fractal Halls of Nothingness 06:24
4. Behold the Vacuum 05:18
******************************
Total playing time: 24:59




Extended info
В Лоу..



Technical info
(IMG:http://metalarea.org/images/spectrogram/2017_Jun/3b68b161019063636dd077210beeffc7.png)
Input File: 04 Behold the Vacuum.mp3
Channels : 2
Sample Rate : 44100
Precision : 16-bit
Duration : 00:05:19.06 = 14070634 samples = 23929.6 CDDA sectors
File Size : 13.7M
Bit Rate : 344k
Sample Encoding: MPEG audio (layer I, II or III)
Comments :
Title=Behold the Vacuum
Artist=Meszaroth
Album=Nihil Manifesto
Tracknumber=4
Year=2017
Genre=Black Metal
Discnumber=4/4



Register


Go to the top of the page
  Insert nick Quick quote
+Quote Post
 
Start new topic
Replies (1 - 3)
post Jun 20 2017, 22:49:02
Post #2

While Waiting the Worms
*********
Group: Металариец
Posts: 907
Releases: 0
On Forums: 5 years 10 months
Thanks: 1227 time(s)
Unknown


да это же Mgla.


Thanks:
Go to the top of the page
  Insert nick Quick quote
+Quote Post
post Jun 21 2017, 09:31:48
Post #3

Семь Литров
*******
Group: Металариец
Posts: 744
Releases: 0
On Forums: 12 years 1 month
Thanks: 287 time(s)
Belarus


копируют, но скучно
Go to the top of the page
  Insert nick Quick quote
+Quote Post
post Jun 21 2017, 19:38:42
Post #4

Психиатр мой лучший друг
******
Group: Металариец
Posts: 527
Releases: 172
From: Уральских Гор
On Forums: 10 years 8 months
Thanks: 4113 time(s)
Russian Federation


По музыке нет вопросов, по облоге , как бы депресняк, по вокалу не интересно!!!
Go to the top of the page
  Insert nick Quick quote
+Quote Post

Причина закрытия (Borderline1991 20-01-2018): Meszaroth - Nihil Manifesto [ep] (2017)
Closed TopicStart new topic
2 User(s) are reading this topic (2 Guests and 0 Anonymous Users)
0 Members:

 



- Lo-Fi Version Support form
Copyrights and abuse reports form
Time is now: 20th November 2019 - 23:07:17