Welcome Guest ( Log In | Register )

> Anthem - Engraved (2017), Heavy Metal (D)
post Jun 20 2017, 19:28:43
Post #1

Thrash, Beer & Violence
**************
Group: Металариец
Posts: 5,503
Releases: 2772
From: Крестов Брод (Russland)
On Forums: 12 years 1 month
Thanks: 40151 time(s)
Russian Federation


(IMG:http://metalarea.org/images/audiocovers/2017_Jun/acov_tid290488_thumb.jpg)

*Artist: Anthem
*Album: Engraved
*Year: 2017
*Genre: Heavy Metal
*Country: Japan (IMG:http://metalarea.org/forum/style_images/flags/Japan.png)
*Format: mp3@CBR320kbps
*Size: 114MB

Tracklist:
1. The Artery Song
2. Far Away
3. Keep You Spirit Alive
4. Linkage
5. Midnight Growl
6. Reactive Desire
7. Sacred Trace
8. Paint Myself
9. Frozen Fate
10. Don't Break Away
11. Engraved
******************************
Total playing time: 49:35



Extended info


Technical info
(IMG:http://metalarea.org/images/spectrogram/2017_Jun/9ea30e4a12c7d4109851a79c41b37d21.png)
Input File: 01 - The Artery Song.mp3
Channels : 2
Sample Rate : 44100
Precision : 16-bit
Duration : 00:03:46.48 = 9987856 samples = 16986.1 CDDA sectors
File Size : 9.10M
Bit Rate : 322k
Sample Encoding: MPEG audio (layer I, II or III)
Comments :
Title=The Artery Song
Artist=Anthem
Album=Engraved
Tracknumber=1/11
Year=2017
Genre=Heavy Metal



Register


Go to the top of the page
  Insert nick Quick quote
+Quote Post
 
Start new topic
Replies (1 - 1)
post Jun 21 2017, 05:25:11
Post #2

Мегаманьяк
***********
Group: Металариец
Posts: 1,780
Releases: 0
On Forums: 7 years 1 week
Thanks: 2588 time(s)
Russian Federation


Альтернативная ссылка
Register


Go to the top of the page
  Insert nick Quick quote
+Quote Post

Reply to this topicStart new topic
2 User(s) are reading this topic (2 Guests and 0 Anonymous Users)
0 Members:

 



- Lo-Fi Version Support form
Copyrights and abuse reports form
Time is now: 14th November 2019 - 00:06:22