Welcome Guest ( Log In | Register )

> Black Sin - Solitude éternelle (2017), Suicidal Black Metal
post Jun 20 2017, 20:52:43
Post #1

Thrash, Beer & Violence
**************
Group: Металариец
Posts: 5,503
Releases: 2772
From: Крестов Брод (Russland)
On Forums: 12 years 1 month
Thanks: 40150 time(s)
Russian Federation


(IMG:http://metalarea.org/images/audiocovers/2017_Jun/acov_tid290492_thumb.jpg)

*Artist: Black Sin
*Album: Solitude éternelle
*Year: 2017
*Genre: Suicidal Black Metal
*Country: France (IMG:http://metalarea.org/forum/style_images/flags/France.png)
*Format: mp3@CBR320kbps
*Size: 111MB

Tracklist:
1. Intro 02:16
2. Lente descente 05:22
3. Dévastation 08:14
4. Derniers instants de vie 06:03
5. K.A.H.R II 04:37
6. Cendres 10:33
7. Vides existences 05:42
8. Solitude éternelle 05:50
******************************
Total playing time: 48:37


(IMG:http://metalarea.org/images/youtube.png)

Extended info


Technical info
(IMG:http://metalarea.org/images/spectrogram/2017_Jun/0c4a9cdf8db92650ac79988cc5d2da0e.png)
Input File: 2.Lente descente.mp3
Channels : 2
Sample Rate : 44100
Precision : 16-bit
Duration : 00:05:22.12 = 14205404 samples = 24158.9 CDDA sectors
File Size : 12.9M
Bit Rate : 320k
Sample Encoding: MPEG audio (layer I, II or III)
Comments :
Title=Lente descente
Artist=Black Sin
Album=Solitude Г©ternelle
Tracknumber=2
Year=2017
Genre=Black Metal



Register


Go to the top of the page
  Insert nick Quick quote
+Quote Post
 
Start new topic
Replies (1 - 3)
post Jun 21 2017, 14:01:02
Post #2

Пять Литров
*****
Group: Металариец
Posts: 451
Releases: 21
From: Подольск
On Forums: 10 years 5 months
Thanks: 596 time(s)
Russian Federation


Начал слушать и залип. (IMG:style_emoticons/default/banana.gif) (IMG:style_emoticons/default/metaler.gif)
Скачал, в общем, дико благодарю (IMG:style_emoticons/default/pray.gif)
Go to the top of the page
  Insert nick Quick quote
+Quote Post
post Jun 21 2017, 14:46:43
Post #3

De Mysteriis Dom Sathanas
**************
Group: Металариец
Posts: 3,713
Releases: 63
From: Doom
On Forums: 11 years 3 months
Thanks: 3125 time(s)
Russian Federation


Нежданчик - все-таки с 2011 не было слышно. У меня последний 2010.. (IMG:style_emoticons/default/spitggis0.gif)
Go to the top of the page
  Insert nick Quick quote
+Quote Post
post Jun 21 2017, 15:33:59
Post #4

my church is black
********
Group: Металариец
Posts: 850
Releases: 1
On Forums: 2 years 5 months
Thanks: 490 time(s)
Cape Verde


ЦИТАТА(RUSP73 @ Jun 21 2017, 18:46:43) *
Нежданчик - все-таки с 2011 не было слышно. У меня последний 2010.. (IMG:style_emoticons/default/spitggis0.gif)



ага, аналогично, на ласте последний раз слушал в 2010м тоже

а ничо так альбом, зашло
Go to the top of the page
  Insert nick Quick quote
+Quote Post

Reply to this topicStart new topic
2 User(s) are reading this topic (2 Guests and 0 Anonymous Users)
0 Members:

 



- Lo-Fi Version Support form
Copyrights and abuse reports form
Time is now: 12th November 2019 - 22:30:04