Welcome Guest ( Log In | Register )

> Blackout - The Horse (2017), Stoner/Doom Metal (D6)
post Jun 23 2017, 17:36:41
Post #1

Thrash, Beer & Violence
**************
Group: Металариец
Posts: 5,503
Releases: 2772
From: Крестов Брод (Russland)
On Forums: 12 years 1 month
Thanks: 40158 time(s)
Russian Federation


(IMG:http://metalarea.org/images/audiocovers/2017_Jun/acov_tid290605_thumb.jpg)

*Artist: Blackout
*Album: The Horse
*Year: 2017
*Genre: Stoner/Doom Metal
*Country: United States (IMG:http://metalarea.org/forum/style_images/flags/United%20States.png)
*Format: mp3@CBR320kbps
*Size: 87MB

Tracklist:
1. Graves
2. Let Em Ride
3. Roach Bites
4. Rat Spirit
5. Amnesia
6. Holy Wood
7. Mean Pads
8. The Horse
******************************
Total playing time: 37:50




Extended info



Technical info
(IMG:http://metalarea.org/images/spectrogram/2017_Jun/0bf80fe8407fd8ce48e6b5a781a78990.png)
Input File: 01. Graves.mp3
Channels : 2
Sample Rate : 44100
Precision : 16-bit
Duration : 00:05:32.12 = 14646360 samples = 24908.8 CDDA sectors
File Size : 13.3M
Bit Rate : 321k
Sample Encoding: MPEG audio (layer I, II or III)
Comments :
Title=Graves
Artist=Blackout
Album=The Horse
Tracknumber=1
Year=2017
Genre=Metal



Register


Go to the top of the page
  Insert nick Quick quote
+Quote Post
 
Start new topic
Replies (1 - 1)
post Jun 26 2017, 19:38:46
Post #2

Правь статус, ####!111
**************
Group: Металариец
Posts: 44,129
Releases: 676
On Forums: 10 years 5 months
Thanks: 35395 time(s)
Russian Federation


Эти птенчики Riding Easy порадовали дебютом, думаю и здесь все будет круто.
Go to the top of the page
  Insert nick Quick quote
+Quote Post

Reply to this topicStart new topic
2 User(s) are reading this topic (2 Guests and 0 Anonymous Users)
0 Members:

 



- Lo-Fi Version Support form
Copyrights and abuse reports form
Time is now: 19th November 2019 - 20:58:01