Welcome Guest ( Log In | Register )

> Weapönizer - Lawless Age (2017), Black/Thrash Metal (D4)
post Jun 26 2017, 20:10:38
Post #1

Аннигилятор пивА
Group Icon
Group: V.I.P
Posts: 48,769
Releases: 14908
From: Koenigsberg - TILZIT
On Forums: 12 years 3 months
Thanks: 326745 time(s)
Russian Federation


(IMG:http://metalarea.org/images/audiocovers/2017_Jun/acov_tid290785_thumb.jpg)

*Artist: Weapönizer
*Album: Lawless Age
*Year: 2017
*Genre: Black/Thrash Metal
*Country: United States (IMG:http://metalarea.org/forum/style_images/flags/United%20States.png)
*Format: mp3@CBR320kbps
*Size: 76MB

Tracklist:
1. Malefactor 03:04
2. Hellbound 04:05
3. Vulture 02:40
4. Rattenkrieg 03:56
5. Lawless Age 02:39
6. Gangrene 03:29
7. Iron Clan Exiles 03:31
8. Temple of the Iron Skull 04:18
9. World War 2 (English Dogs cover) 01:56
******************************
Total playing time: 29:33

http://listen.20buckspin.com/album/lawless-age



Extended info
Shaggy - Drums (Nekrofilth, ex-Carrion Crawler)
Barbarian - Bass, Vocals (ex-Fetal Hymen, ex-Teratism, ex-Epicurean, ex-Aborted Fetus)
Ale Wülf - Guitars (Nekrofilth, Vargtimmen, ex-Carrion Crawler, ex-Zombie Hate Brigade)
Deströyer - Guitars




Technical info
(IMG:http://metalarea.org/images/spectrogram/2017_Jun/689d5e3381ef1ee3b554f68b09ebd0da.png)
Input File: 03 Vulture.mp3
Channels : 2
Sample Rate : 44100
Precision : 16-bit
Duration : 00:02:39.23 = 7022087 samples = 11942.3 CDDA sectors
File Size : 6.57M
Bit Rate : 330k
Sample Encoding: MPEG audio (layer I, II or III)
Comments :
Title=Vulture
Artist=Weapönizer
Album=Lawless Age
Tracknumber=3
Year=2017



Register


Go to the top of the page
  Insert nick Quick quote
+Quote Post
 
Start new topic
Replies (1 - 6)
post Jun 26 2017, 20:24:34
Post #2

Аннигилятор пивА
Group Icon
Group: V.I.P
Posts: 48,769
Releases: 14908
From: Koenigsberg - TILZIT
On Forums: 12 years 3 months
Thanks: 326745 time(s)
Russian Federation


mirror
Register


Прикольно у них там на шашлычках, уютненько


Go to the top of the page
  Insert nick Quick quote
+Quote Post
post Jun 26 2017, 20:45:24
Post #3

Маньяк
**********
Group: Металариец
Posts: 1,286
Releases: 5
From: Нью-Васюки
On Forums: 12 years 4 months
Thanks: 369 time(s)
Russian Federation


Что такое "смешанные чувства" - это когда теща на твоих "Жигулях" летит в пропасть. Так и тут. Вроде и играют хорошо и записано клево, но как то все скомкано и смешано.
Go to the top of the page
  Insert nick Quick quote
+Quote Post
post Jun 26 2017, 22:30:33
Post #4

Два Литра
**
Group: Завсегдатай
Posts: 121
Releases: 0
On Forums: 3 years 4 months
Thanks: 55 time(s)
Ukraine


bandcamp


Thanks:
Go to the top of the page
  Insert nick Quick quote
+Quote Post
post Jun 27 2017, 14:59:40
Post #5

Аполітичний
**************
Group: Металариец
Posts: 5,187
Releases: 143
From: Тимчасово окупована територія - Юзівка
On Forums: 10 years 3 weeks
Thanks: 5395 time(s)
Ukraine


Солидно.
Go to the top of the page
  Insert nick Quick quote
+Quote Post
post Jun 27 2017, 20:08:04
Post #6

Правь статус, ####!111
**************
Group: Металариец
Posts: 2,538
Releases: 0
From: Одесса
On Forums: 10 years 6 months
Thanks: 948 time(s)
Ukraine


Very Good (IMG:style_emoticons/default/9.gif)
Go to the top of the page
  Insert nick Quick quote
+Quote Post
post Jun 13 2018, 14:52:19
Post #7

Правь статус, ####!111
**************
Group: Металариец
Posts: 2,538
Releases: 0
From: Одесса
On Forums: 10 years 6 months
Thanks: 948 time(s)
Ukraine


This release really slays. If you don't know it yet, try it! (IMG:style_emoticons/default/9.gif)
Go to the top of the page
  Insert nick Quick quote
+Quote Post

Reply to this topicStart new topic
2 User(s) are reading this topic (2 Guests and 0 Anonymous Users)
0 Members:

 



- Lo-Fi Version Support form
Copyrights and abuse reports form
Time is now: 18th September 2018 - 18:15:25