Welcome Guest ( Log In | Register )

> И неформату есть предел.

Рэп/хип-хоп/шансон/поп удаляются. Для них есть свои порталы.

 
Reply to this topicStart new topic
> One Desire - One Desire (2017), Melodic Hard Rock
post Jun 27 2017, 19:53:23
Post #1

Thrash, Beer & Violence
**************
Group: Металариец
Posts: 5,503
Releases: 2772
From: Крестов Брод (Russland)
On Forums: 12 years 1 month
Thanks: 40160 time(s)
Russian Federation


(IMG:http://metalarea.org/images/audiocovers/2017_Jun/acov_tid290825_thumb.jpg)

*Artist: One Desire
*Album: One Desire
*Year: 2017
*Genre: Melodic Hard Rock
*Country: Finland (IMG:http://metalarea.org/forum/style_images/flags/Finland.png)
*Format: mp3@CBR320kbps
*Size: 110MB

Tracklist:
1. Hurt
2. Apologize
3. Love Injection
4. Turn Back Time
5. Falling Apart
6. Straight Through the Heart
7. Whenever I'm Dreaming
8. Do You Believe
9. Buried Alive
10. This Is Where the Heartbreak Begins
11. This Is Where the Heartbreak Begins (Acoustic Version) (Bonus Track)
******************************
Total playing time: 48:12

HomePage


Extended info
Дебютный альбом...




Technical info
(IMG:http://metalarea.org/images/spectrogram/2017_Jun/bfec20e903f9a1f15bdb7dff7da57611.png)
Input File: 02 Apologize.mp3
Channels : 2
Sample Rate : 44100
Precision : 16-bit
Duration : 00:03:19.94 = 8817530 samples = 14995.8 CDDA sectors
File Size : 8.01M
Bit Rate : 320k
Sample Encoding: MPEG audio (layer I, II or III)
Comments :
Title=Apologize
Artist=One Desire
Album=One Desire (Japan)
Tracknumber=02
Year=2017
Genre=Hard Rock



Register


Go to the top of the page
  Insert nick Quick quote
+Quote Post

Reply to this topicStart new topic
2 User(s) are reading this topic (2 Guests and 0 Anonymous Users)
0 Members:

 



- Lo-Fi Version Support form
Copyrights and abuse reports form
Time is now: 22nd November 2019 - 02:50:47