Welcome Guest ( Log In | Register )

> Karne - Symposium Of Torments (2017), Black Metal
post Jun 30 2017, 12:48:46
Post #1

Аннигилятор пивА
Group Icon
Group: V.I.P
Posts: 52,358
Releases: 16555
From: Koenigsberg - TILZIT
On Forums: 13 years 4 months
Thanks: 362714 time(s)
Russian Federation


(IMG:https://metalarea.org/images/audiocovers/2017_Jun/acov_tid290926_thumb.jpg)

*Artist: Karne
*Album: Symposium Of Torments
*Year: 2017
*Genre: Black Metal
*Country: France (IMG:https://metalarea.org/forum/style_images/flags/France.png)
*Format: mp3@CBR320kbps
*Size: 106MB

Tracklist:
01. False King Coronation 05:40
02. Pyre of Disloyalty 05:09
03. Waltz in the Shade 04:10
04. Enlightenment of the Mayed 04:29
05. Sempiternal Shackles of Savagery 05:02
06. Ave Patria, Morituri Te Saluant 05:02
07. Desire Achievment 03:36
08. As Below So Above 04:33
09. The Price of Faith 04:23
10. Among the Void 04:40
******************************
Total playing time: 46:44



Extended info
Bael - Drums (2011-present) See also: Ferriterium, ex-Marthyr, ex-Swellpain, ex-Hex Mortia, ex-Mauser Fuckers
Apathy - Guitars (2011), Vocals (2016-present)See also: Bleeding Solitude, Dawohl, ex-Profondis Requiem (live), ex-Apocryphe, ex-Malevolentia, ex-Myrkvid
Raido - Guitars (2011-present) See also: Ferriterium, Heimsgard, Malevolentia
H.K.A - Guitars (2012-present) See also: Frozen Storm
Ben - Bass (2017-present)


Technical info
(IMG:https://metalarea.org/images/spectrogram/2017_Jun/3ce808c7f61bd5d5094537d33e1a35a2.png)
Input File: 07 - Desire Achievement.mp3
Channels : 2
Sample Rate : 44100
Precision : 16-bit
Duration : 00:03:36.06 = 9528070 samples = 16204.2 CDDA sectors
File Size : 8.64M
Bit Rate : 320k
Sample Encoding: MPEG audio (layer I, II or III)
Comments :
Title=Desire Achievement
Artist=Karne
Album=Symposium Of Torments
Tracknumber=7
Year=2017



Register


Go to the top of the page
  Insert nick Quick quote
+Quote Post
 
Start new topic
Replies (1 - 8)
post Jun 30 2017, 14:43:01
Post #2

Аннигилятор пивА
Group Icon
Group: V.I.P
Posts: 52,358
Releases: 16555
From: Koenigsberg - TILZIT
On Forums: 13 years 4 months
Thanks: 362714 time(s)
Russian Federation


MIRROR
Register


Go to the top of the page
  Insert nick Quick quote
+Quote Post
post Jun 30 2017, 20:38:12
Post #3

Аннигилятор пивА
Group Icon
Group: V.I.P
Posts: 52,358
Releases: 16555
From: Koenigsberg - TILZIT
On Forums: 13 years 4 months
Thanks: 362714 time(s)
Russian Federation



Go to the top of the page
  Insert nick Quick quote
+Quote Post
post Jul 1 2017, 14:48:37
Post #4

Правь статус, ####!111
**************
Group: Металариец
Posts: 2,681
Releases: 8
From: Dnipro
On Forums: 11 years 3 months
Thanks: 834 time(s)
Ukraine


Ай как хорошо (IMG:style_emoticons/default/20.gif)
Go to the top of the page
  Insert nick Quick quote
+Quote Post
post Jul 1 2017, 18:13:17
Post #5

Group: Дух
Posts: 1
Releases: 0
On Forums: 2 years 3 months
Thanks: 0 time(s)
Germany


Great album (IMG:style_emoticons/default/true_black.gif)
Go to the top of the page
  Insert nick Quick quote
+Quote Post
post Jul 2 2017, 10:45:22
Post #6

Два Литра
**
Group: Завсегдатай
Posts: 165
Releases: 0
On Forums: 13 years 3 months
Thanks: 9 time(s)
Russian Federation


thanx a lot,

fantastic album
finally some really good black metal album...
do you know any new bands with same quality and style ? pretty hard to find anything at top level....
Go to the top of the page
  Insert nick Quick quote
+Quote Post
post Sep 29 2017, 22:00:15
Post #7

i listen to black metal
**************
Group: Металариец
Posts: 2,406
Releases: 129
From: Москва-Лианозово
On Forums: 12 years 10 months
Thanks: 2072 time(s)
Russian Federation


вокалистка- Молодца!!!
Go to the top of the page
  Insert nick Quick quote
+Quote Post
post Sep 30 2017, 19:06:11
Post #8

Пять Литров
*****
Group: Металариец
Posts: 477
Releases: 1
On Forums: 6 years 2 months
Thanks: 720 time(s)
Unknown


from the web 320
Register
Go to the top of the page
  Insert nick Quick quote
+Quote Post
post Oct 9 2019, 14:21:28
Post #9

De Mysteriis Dom Sathanas
**************
Group: Металариец
Posts: 3,694
Releases: 63
From: Doom
On Forums: 11 years 3 months
Thanks: 3101 time(s)
Russian Federation


ЦИТАТА(Victim of fate @ Sep 30 2017, 00:00:15) *
вокалистка- Молодца!!!

До 2015 была, а тут вокалист вроде
Go to the top of the page
  Insert nick Quick quote
+Quote Post

Reply to this topicStart new topic
2 User(s) are reading this topic (2 Guests and 0 Anonymous Users)
0 Members:

 



- Lo-Fi Version Support form
Copyrights and abuse reports form
Time is now: 22nd October 2019 - 07:42:16