Welcome Guest ( Log In | Register )

> Himelvaruwe - CCIII [demo] (2017), Raw Atmospheric Black Metal
post Jul 1 2017, 22:49:21
Post #1

Дети, блуждающие в Пустошах, возрадуйтесь! Атом даёт вам шанс на спасение!
********
Group: Металариец
Posts: 808
Releases: 147
From: Одеса
On Forums: 4 years 5 months
Thanks: 2158 time(s)
Ukraine


(IMG:http://metalarea.org/images/audiocovers/2017_Jul/acov_tid290987_thumb.jpg)

*Artist: Himelvaruwe
*Album: CCIII [demo]
*Year: 2017
*Genre: Raw Atmospheric Black Metal
*Country: Netherlands (IMG:http://metalarea.org/forum/style_images/flags/Netherlands.png)
*Format: mp3@CBR320kbps
*Size: 35MB

Tracklist:
01. Carthago 08:30
02. II 05:35
******************************
Total playing time: 14:05



Technical info
(IMG:http://metalarea.org/images/spectrogram/2017_Jul/d731df2e09d9317474b82037299d9db2.png)
Input File: 02. II.mp3
Channels : 2
Sample Rate : 44100
Precision : 16-bit
Duration : 00:05:35.73 = 14805737 samples = 25179.8 CDDA sectors
File Size : 13.6M
Bit Rate : 324k
Sample Encoding: MPEG audio (layer I, II or III)
Comments :
Title=II
Artist=Himelvaruwe
Album=CCIII
Tracknumber=2
Year=2017



Register


Go to the top of the page
  Insert nick Quick quote
+Quote Post
 
Start new topic
Replies (1 - 2)
post Sep 15 2017, 19:04:41
Post #2

antithesis
**************
Group: Металариец
Posts: 2,168
Releases: 27
From: VRN
On Forums: 8 years 3 weeks
Thanks: 1126 time(s)
Russian Federation


очень сыро и нойзово, крайне на любителя
Go to the top of the page
  Insert nick Quick quote
+Quote Post
post Mar 13 2018, 18:50:27
Post #3

Black is beautiful
***********
Group: Металариец
Posts: 1,575
Releases: 3
On Forums: 6 years 3 months
Thanks: 274 time(s)
Unknown


What's that? Only noise. No music!
Go to the top of the page
  Insert nick Quick quote
+Quote Post

Reply to this topicStart new topic
1 User(s) are reading this topic (1 Guests and 0 Anonymous Users)
0 Members:

 



- Lo-Fi Version Support form
Copyrights and abuse reports form
Time is now: 18th June 2018 - 10:54:56