Welcome Guest ( Log In | Register )

> Black Beasts - Black Beasts [ep] (2012), Raw Black Metal
post Jul 2 2017, 17:13:56
Post #1

Правь статус, ####!111
**************
Group: Металариец
Posts: 3,298
Releases: 643
From: Brazil
On Forums: 6 years 7 months
Thanks: 25555 time(s)
Brazil


(IMG:http://metalarea.org/images/audiocovers/2017_Jul/acov_tid291024_thumb.jpg)

*Artist: Black Beasts
*Album: Black Beasts [ep]
*Year: 2012
*Genre: Raw Black Metal
*Country: United States (IMG:http://metalarea.org/forum/style_images/flags/United%20States.png)
*Format: mp3@VBR319kbps
*Size: 18MB

Tracklist:
1. Qliphoth 02:08
2. The Moon in One Eye, The Sun in the Other 01:29
3. Pass the Eternal Gate 01:44
4. Descent from Being 02:28
******************************
Total playing time: 7:49

Preview 1

Technical info
(IMG:http://metalarea.org/images/spectrogram/2017_Jul/1e8904a34cd0f3ea19af81d4223a01ef.png)
Input File: 01 Qliphoth.mp3
Channels : 2
Sample Rate : 44100
Precision : 16-bit
Duration : 00:01:57.66 = 5188586 samples = 8824.13 CDDA sectors
File Size : 4.73M
Bit Rate : 322k
Sample Encoding: MPEG audio (layer I, II or III)
Comments :
Title=Qliphoth
Artist=Black Beasts
Album=Black Beasts
Tracknumber=01/04
Year=2012
Genre=Black Metal



Register


Register


Go to the top of the page
  Insert nick Quick quote
+Quote Post
 
Start new topic
Replies (1 - 1)
post Mar 13 2018, 20:43:59
Post #2

Black is beautiful
***********
Group: Металариец
Posts: 1,613
Releases: 3
On Forums: 6 years 6 months
Thanks: 279 time(s)
Unknown


Raw - or bad quality? (IMG:style_emoticons/default/fear.gif)
Go to the top of the page
  Insert nick Quick quote
+Quote Post

Reply to this topicStart new topic
1 User(s) are reading this topic (1 Guests and 0 Anonymous Users)
0 Members:

 



- Lo-Fi Version Support form
Copyrights and abuse reports form
Time is now: 21st September 2018 - 02:49:44