Welcome Guest ( Log In | Register )

> Mad God - Tales Of A Sightless City (2017), Stoner/Doom Metal/Psychedelic Rock
post Jul 3 2017, 17:45:18
Post #1

Serpent Doom
**************
Group: Металариец
Posts: 2,124
Releases: 654
From: Moscow region
On Forums: 11 years 4 months
Thanks: 11739 time(s)
Russian Federation


(IMG:http://metalarea.org/images/audiocovers/2017_Jul/acov_tid291100_thumb.jpg)

*Artist: Mad God
*Album: Tales Of A Sightless City
*Year: 2017
*Genre: Stoner/Doom Metal/Psychedelic Rock
*Country: South Africa (IMG:http://metalarea.org/forum/style_images/flags/South%20Africa.png)
*Format: mp3@CBR320kbps
*Size: 98MB

Tracklist:
1. Limerence 05:45
2. Green Guardian 06:32
3. The Cursed One And The First Flame 13:45
4. Nebula Riders 07:07
5. Entity Of Smoke And Blood 07:16
******************************
Total playing time: 40:25



Technical info
(IMG:http://metalarea.org/images/spectrogram/2017_Jul/0cddaac1f53d8280de210d8cde9decae.png)
Input File: 01. Limerence.mp3
Channels : 2
Sample Rate : 44100
Precision : 16-bit
Duration : 00:05:45.43 = 15233463 samples = 25907.2 CDDA sectors
File Size : 13.9M
Bit Rate : 322k
Sample Encoding: MPEG audio (layer I, II or III)
Comments :
Title=Limerence
Artist=Mad God
Album=Tales Of A Sightless City
Tracknumber=1
Year=2017
Genre=Metal



Register


Go to the top of the page
  Insert nick Quick quote
+Quote Post
 
Start new topic
Replies (1 - 1)
post Sep 18 2017, 14:33:29
Post #2

Welder - master Wunderkerzen
***********
Group: Металариец
Posts: 1,547
Releases: 47
On Forums: 11 years 8 months
Thanks: 3492 time(s)
Russian Federation


Отличный стоунер!!!
Go to the top of the page
  Insert nick Quick quote
+Quote Post

Reply to this topicStart new topic
1 User(s) are reading this topic (1 Guests and 0 Anonymous Users)
0 Members:

 



- Lo-Fi Version Support form
Copyrights and abuse reports form
Time is now: 23rd January 2020 - 00:37:58