Welcome Guest ( Log In | Register )

> Shroud Eater - Strike The Sun (2017), Doom Metal/Sludge (D5)
post Jul 6 2017, 14:23:29
Post #1

Правь статус, ####!111
**************
Group: Металариец
Posts: 23,136
Releases: 16142
From: Г.Харьков
On Forums: 8 years 4 months
Thanks: 300308 time(s)
Unknown


(IMG:http://metalarea.org/images/audiocovers/2017_Jul/acov_tid291190_thumb.jpg)

*Artist: Shroud Eater
*Album: Strike The Sun
*Year: 2017
*Genre: Doom Metal/Sludge
*Country: United States (IMG:http://metalarea.org/forum/style_images/flags/United%20States.png)
*Format: mp3@CBR320kbps
*Size: 97MB

Tracklist:
1. Smokeless Fire 03:22
2. Iron Mountain 06:38
3. Awaken Assassin 05:56
4. Another Skin 05:18
5. Dream Flesh 02:22
6. It Walks Among 06:21
7. Unseen Hand 04:52
8. Futile Exile 07:20
******************************
Total playing time: 42:09



Technical info
(IMG:http://metalarea.org/images/spectrogram/2017_Jul/ad33bea8109e940ca21c7ca3166f5e72.png)
Input File: 2 - Iron Mountain.mp3
Channels : 2
Sample Rate : 44100
Precision : 16-bit
Duration : 00:06:38.83 = 17588579 samples = 29912.5 CDDA sectors
File Size : 16.1M
Bit Rate : 322k
Sample Encoding: MPEG audio (layer I, II or III)
Comments :
Title=Iron Mountain
Artist=Shroud Eater
Album=Strike the Sun
Tracknumber=2/8
Year=2017



Register


Go to the top of the page
  Insert nick Quick quote
+Quote Post
 
Start new topic
Replies (1 - 3)
post Jul 6 2017, 15:44:39
Post #2

Правь статус, ####!111
**************
Group: Металариец
Posts: 23,136
Releases: 16142
From: Г.Харьков
On Forums: 8 years 4 months
Thanks: 300308 time(s)
Unknown


Register


Go to the top of the page
  Insert nick Quick quote
+Quote Post
post Jul 6 2017, 20:40:55
Post #3

Serpent Doom
**************
Group: Металариец
Posts: 2,128
Releases: 655
From: Moscow region
On Forums: 12 years 2 weeks
Thanks: 11811 time(s)
Russian Federation


Актуальное превью
Go to the top of the page
  Insert nick Quick quote
+Quote Post
post Sep 25 2019, 18:34:13
Post #4

Литр
*
Group: Подсевший
Posts: 56
Releases: 0
From: Poland
On Forums: 3 years 9 months
Thanks: 23 time(s)
Poland


QUOTE(Samaritianin @ Jul 6 2017, 16:44:39) *


I was searching everywhere for this album, thanks dude!
(IMG:style_emoticons/default/pray.gif) (IMG:style_emoticons/default/pray.gif) (IMG:style_emoticons/default/pray.gif)
Go to the top of the page
  Insert nick Quick quote
+Quote Post

Reply to this topicStart new topic
1 User(s) are reading this topic (1 Guests and 0 Anonymous Users)
0 Members:

 



- Lo-Fi Version Support form
Copyrights and abuse reports form
Time is now: 19th September 2020 - 19:53:34